  0
SECTION
  2
HEADER
  9
$ACADVER
  1
AC1014
  9
$ACADMAINTVER
 70
     9
  9
$DWGCODEPAGE
  3
ANSI_1252
  9
$INSBASE
 10
0.0
 20
0.0
 30
0.0
  9
$EXTMIN
 10
-746.6807550434658
 20
21.41489983767891
 30
0.0
  9
$EXTMAX
 10
-548.7769709306661
 20
146.5171719014724
 30
0.0
  9
$LIMMIN
 10
0.0
 20
0.0
  9
$LIMMAX
 10
12.0
 20
9.0
  9
$ORTHOMODE
 70
     1
  9
$REGENMODE
 70
     1
  9
$FILLMODE
 70
     1
  9
$QTEXTMODE
 70
     0
  9
$MIRRTEXT
 70
     1
  9
$DRAGMODE
 70
     2
  9
$LTSCALE
 40
1.0
  9
$OSMODE
 70
    37
  9
$ATTMODE
 70
     1
  9
$TEXTSIZE
 40
2.0
  9
$TRACEWID
 40
0.05
  9
$TEXTSTYLE
  7
STANDARD
  9
$CLAYER
  8
HATCH
  9
$CELTYPE
  6
BYLAYER
  9
$CECOLOR
 62
   256
  9
$CELTSCALE
 40
1.0
  9
$DELOBJ
 70
     1
  9
$DISPSILH
 70
     0
  9
$DIMSCALE
 40
1.0
  9
$DIMASZ
 40
1.5
  9
$DIMEXO
 40
0.75
  9
$DIMDLI
 40
1.5
  9
$DIMRND
 40
0.0
  9
$DIMDLE
 40
0.0
  9
$DIMEXE
 40
1.5
  9
$DIMTP
 40
0.0
  9
$DIMTM
 40
0.0
  9
$DIMTXT
 40
1.5
  9
$DIMCEN
 40
0.09
  9
$DIMTSZ
 40
0.0
  9
$DIMTOL
 70
     0
  9
$DIMLIM
 70
     0
  9
$DIMTIH
 70
     1
  9
$DIMTOH
 70
     1
  9
$DIMSE1
 70
     0
  9
$DIMSE2
 70
     0
  9
$DIMTAD
 70
     0
  9
$DIMZIN
 70
     0
  9
$DIMBLK
  1

  9
$DIMASO
 70
     1
  9
$DIMSHO
 70
     1
  9
$DIMPOST
  1

  9
$DIMAPOST
  1

  9
$DIMALT
 70
     0
  9
$DIMALTD
 70
     2
  9
$DIMALTF
 40
25.4
  9
$DIMLFAC
 40
1.0
  9
$DIMTOFL
 70
     0
  9
$DIMTVP
 40
0.0
  9
$DIMTIX
 70
     0
  9
$DIMSOXD
 70
     0
  9
$DIMSAH
 70
     0
  9
$DIMBLK1
  1

  9
$DIMBLK2
  1

  9
$DIMSTYLE
  2
STANDARD
  9
$DIMCLRD
 70
     0
  9
$DIMCLRE
 70
     0
  9
$DIMCLRT
 70
     0
  9
$DIMTFAC
 40
1.0
  9
$DIMGAP
 40
0.09
  9
$DIMJUST
 70
     0
  9
$DIMSD1
 70
     0
  9
$DIMSD2
 70
     0
  9
$DIMTOLJ
 70
     1
  9
$DIMTZIN
 70
     0
  9
$DIMALTZ
 70
     0
  9
$DIMALTTZ
 70
     0
  9
$DIMFIT
 70
     3
  9
$DIMUPT
 70
     0
  9
$DIMUNIT
 70
     2
  9
$DIMDEC
 70
     1
  9
$DIMTDEC
 70
     1
  9
$DIMALTU
 70
     2
  9
$DIMALTTD
 70
     2
  9
$DIMTXSTY
  7
STANDARD
  9
$DIMAUNIT
 70
     0
  9
$LUNITS
 70
     2
  9
$LUPREC
 70
     4
  9
$SKETCHINC
 40
0.1
  9
$FILLETRAD
 40
1.0
  9
$AUNITS
 70
     0
  9
$AUPREC
 70
     0
  9
$MENU
  1
.
  9
$ELEVATION
 40
0.0
  9
$PELEVATION
 40
0.0
  9
$THICKNESS
 40
0.0
  9
$LIMCHECK
 70
     0
  9
$BLIPMODE
 70
     0
  9
$CHAMFERA
 40
0.5
  9
$CHAMFERB
 40
0.5
  9
$CHAMFERC
 40
1.0
  9
$CHAMFERD
 40
0.0
  9
$SKPOLY
 70
     0
  9
$TDCREATE
 40
2452534.628513808
  9
$TDUPDATE
 40
2453420.347694583
  9
$TDINDWG
 40
0.3250075926
  9
$TDUSRTIMER
 40
0.3250059722
  9
$USRTIMER
 70
     1
  9
$ANGBASE
 50
0.0
  9
$ANGDIR
 70
     0
  9
$PDMODE
 70
     0
  9
$PDSIZE
 40
0.0
  9
$PLINEWID
 40
0.0
  9
$COORDS
 70
     1
  9
$SPLFRAME
 70
     0
  9
$SPLINETYPE
 70
     6
  9
$SPLINESEGS
 70
     8
  9
$ATTDIA
 70
     1
  9
$ATTREQ
 70
     1
  9
$HANDLING
 70
 22529
  9
$HANDSEED
  5
1AB6
  9
$SURFTAB1
 70
     6
  9
$SURFTAB2
 70
     6
  9
$SURFTYPE
 70
     6
  9
$SURFU
 70
     6
  9
$SURFV
 70
     6
  9
$UCSNAME
  2

  9
$UCSORG
 10
0.0
 20
0.0
 30
0.0
  9
$UCSXDIR
 10
1.0
 20
0.0
 30
0.0
  9
$UCSYDIR
 10
0.0
 20
1.0
 30
0.0
  9
$PUCSNAME
  2

  9
$PUCSORG
 10
0.0
 20
0.0
 30
0.0
  9
$PUCSXDIR
 10
1.0
 20
0.0
 30
0.0
  9
$PUCSYDIR
 10
0.0
 20
1.0
 30
0.0
  9
$USERI1
 70
     0
  9
$USERI2
 70
     0
  9
$USERI3
 70
     0
  9
$USERI4
 70
     0
  9
$USERI5
 70
     0
  9
$USERR1
 40
0.0
  9
$USERR2
 40
0.0
  9
$USERR3
 40
0.0
  9
$USERR4
 40
0.0
  9
$USERR5
 40
0.0
  9
$WORLDVIEW
 70
     1
  9
$SHADEDGE
 70
     3
  9
$SHADEDIF
 70
    70
  9
$TILEMODE
 70
     1
  9
$MAXACTVP
 70
    48
  9
$PINSBASE
 10
0.0
 20
0.0
 30
0.0
  9
$PLIMCHECK
 70
     0
  9
$PEXTMIN
 10
1.000000000000000E+20
 20
1.000000000000000E+20
 30
1.000000000000000E+20
  9
$PEXTMAX
 10
-1.000000000000000E+20
 20
-1.000000000000000E+20
 30
-1.000000000000000E+20
  9
$PLIMMIN
 10
0.0
 20
0.0
  9
$PLIMMAX
 10
12.0
 20
9.0
  9
$UNITMODE
 70
     0
  9
$VISRETAIN
 70
     1
  9
$PLINEGEN
 70
     0
  9
$PSLTSCALE
 70
     1
  9
$TREEDEPTH
 70
  3020
  9
$PICKSTYLE
 70
     1
  9
$CMLSTYLE
  2
STANDARD
  9
$CMLJUST
 70
     0
  9
$CMLSCALE
 40
1.0
  9
$PROXYGRAPHICS
 70
     1
  9
$MEASUREMENT
 70
     1
  0
ENDSEC
  0
SECTION
  2
CLASSES
  0
CLASS
  1
ACDBDICTIONARYWDFLT
  2
AcDbDictionaryWithDefault
  3
AutoCAD 2000
 90
        0
280
     0
281
     0
  0
CLASS
  1
ACDBPLACEHOLDER
  2
AcDbPlaceHolder
  3
AutoCAD 2000
 90
        0
280
     0
281
     0
  0
CLASS
  1
LAYOUT
  2
AcDbLayout
  3
AutoCAD 2000
 90
        0
280
     0
281
     0
  0
CLASS
  1
DICTIONARYVAR
  2
AcDbDictionaryVar
  3
AutoCAD 2000
 90
        0
280
     0
281
     0
  0
CLASS
  1
LONG_TRANSACTION
  2
AcDbLongTransaction
  3
AutoCAD 2000
 90
        0
280
     0
281
     0
  0
CLASS
  1
LWPOLYLINE
  2
AcDbPolyline
  3
AutoCAD 2000
 90
        0
280
     0
281
     1
  0
CLASS
  1
HATCH
  2
AcDbHatch
  3
AutoCAD 2000
 90
        0
280
     0
281
     1
  0
CLASS
  1
XRECORD
  2
AcDbXrecord
  3
AutoCAD 2000
 90
        0
280
     0
281
     0
  0
CLASS
  1
LAYER_INDEX
  2
AcDbLayerIndex
  3
AutoCAD 2000
 90
        0
280
     0
281
     0
  0
CLASS
  1
SPATIAL_INDEX
  2
AcDbSpatialIndex
  3
AutoCAD 2000
 90
        0
280
     0
281
     0
  0
CLASS
  1
IDBUFFER
  2
AcDbIdBuffer
  3
AutoCAD 2000
 90
        0
280
     0
281
     0
  0
CLASS
  1
LONG_TRANSACTION
  2
AcDbLongTransaction
  3
AutoCAD 2000
 90
        0
280
     0
281
     0
  0
CLASS
  1
LWPOLYLINE
  2
AcDbPolyline
  3
AutoCAD 2000
 90
        0
280
     0
281
     1
  0
CLASS
  1
HATCH
  2
AcDbHatch
  3
AutoCAD 2000
 90
        0
280
     0
281
     1
  0
CLASS
  1
XRECORD
  2
AcDbXrecord
  3
AutoCAD 2000
 90
        0
280
     0
281
     0
  0
CLASS
  1
LONG_TRANSACTION
  2
AcDbLongTransaction
  3
AutoCAD 2000
 90
        0
280
     0
281
     0
  0
CLASS
  1
LWPOLYLINE
  2
AcDbPolyline
  3
AutoCAD 2000
 90
        0
280
     0
281
     1
  0
CLASS
  1
HATCH
  2
AcDbHatch
  3
AutoCAD 2000
 90
        0
280
     0
281
     1
  0
CLASS
  1
XRECORD
  2
AcDbXrecord
  3
AutoCAD 2000
 90
        0
280
     0
281
     0
  0
CLASS
  1
LONG_TRANSACTION
  2
AcDbLongTransaction
  3
AutoCAD 2000
 90
        0
280
     0
281
     0
  0
CLASS
  1
LWPOLYLINE
  2
AcDbPolyline
  3
AutoCAD 2000
 90
        0
280
     0
281
     1
  0
CLASS
  1
HATCH
  2
AcDbHatch
  3
AutoCAD 2000
 90
        0
280
     0
281
     1
  0
CLASS
  1
XRECORD
  2
AcDbXrecord
  3
AutoCAD 2000
 90
        0
280
     0
281
     0
  0
ENDSEC
  0
SECTION
  2
TABLES
  0
TABLE
  2
VPORT
  5
8
330
0
100
AcDbSymbolTable
 70
     2
  0
VPORT
  5
1A93
330
8
100
AcDbSymbolTableRecord
100
AcDbViewportTableRecord
  2
*ACTIVE
 70
     0
 10
0.0
 20
0.0
 11
1.0
 21
1.0
 12
-642.2839370513244
 22
83.61506552513532
 13
0.0
 23
0.0
 14
0.5
 24
0.5
 15
0.5
 25
0.5
 16
0.0
 26
0.0
 36
1.0
 17
0.0
 27
0.0
 37
0.0
 40
131.5168681667749
 41
1.706814580031695
 42
50.0
 43
0.0
 44
0.0
 50
0.0
 51
0.0
 71
     0
 72
   100
 73
     1
 74
     3
 75
     0
 76
     0
 77
     0
 78
     0
  0
ENDTAB
  0
TABLE
  2
LTYPE
  5
5
330
0
100
AcDbSymbolTable
 70
     5
  0
LTYPE
  5
14
330
5
100
AcDbSymbolTableRecord
100
AcDbLinetypeTableRecord
  2
BYBLOCK
 70
     0
  3

 72
    65
 73
     0
 40
0.0
  0
LTYPE
  5
15
330
5
100
AcDbSymbolTableRecord
100
AcDbLinetypeTableRecord
  2
BYLAYER
 70
     0
  3

 72
    65
 73
     0
 40
0.0
  0
LTYPE
  5
16
330
5
100
AcDbSymbolTableRecord
100
AcDbLinetypeTableRecord
  2
CONTINUOUS
 70
     0
  3
Solid line
 72
    65
 73
     0
 40
0.0
  0
LTYPE
  5
34
330
5
100
AcDbSymbolTableRecord
100
AcDbLinetypeTableRecord
  2
ACAD_ISO08W100
 70
     0
  3
ISO long-dash short-dash ____ __ ____ __ ____ _
 72
    65
 73
     4
 40
36.0
 49
24.0
 74
     0
 49
-3.0
 74
     0
 49
6.0
 74
     0
 49
-3.0
 74
     0
  0
LTYPE
  5
35
330
5
100
AcDbSymbolTableRecord
100
AcDbLinetypeTableRecord
  2
ACAD_ISO02W100
 70
     0
  3
ISO dash __ __ __ __ __ __ __ __ __ __ __ __ __
 72
    65
 73
     2
 40
15.0
 49
12.0
 74
     0
 49
-3.0
 74
     0
  0
LTYPE
  5
C29
330
5
100
AcDbSymbolTableRecord
100
AcDbLinetypeTableRecord
  2
GESTRICHELT
 70
     0
  3
__ __ __ __  __ __
 72
    65
 73
     2
 40
1.75
 49
1.0
 74
     0
 49
-1.0
 74
     0
  0
LTYPE
  5
C2A
330
5
100
AcDbSymbolTableRecord
100
AcDbLinetypeTableRecord
  2
MITTE
 70
     0
  3
Centerline
 72
    65
 73
     4
 40
2.5
 49
0.4
 74
     0
 49
-1.0
 74
     0
 49
0.05
 74
     0
 49
-1.0
 74
     0
  0
ENDTAB
  0
TABLE
  2
LAYER
  5
2
330
0
100
AcDbSymbolTable
 70
     7
  0
LAYER
  5
10
330
2
100
AcDbSymbolTableRecord
100
AcDbLayerTableRecord
  2
0
 70
     0
 62
     7
  6
CONTINUOUS
  0
LAYER
  5
C43
330
2
100
AcDbSymbolTableRecord
100
AcDbLayerTableRecord
  2
HIDDEN
 70
     0
 62
     3
  6
ACAD_ISO02W100
  0
LAYER
  5
C44
330
2
100
AcDbSymbolTableRecord
100
AcDbLayerTableRecord
  2
CENTRE
 70
     0
 62
     1
  6
ACAD_ISO08W100
  0
LAYER
  5
163B
330
2
100
AcDbSymbolTableRecord
100
AcDbLayerTableRecord
  2
CONSTRUCT
 70
     0
 62
    40
  6
CONTINUOUS
  0
LAYER
  5
16B0
330
2
100
AcDbSymbolTableRecord
100
AcDbLayerTableRecord
  2
HATCH
 70
     0
 62
     6
  6
CONTINUOUS
  0
LAYER
  5
171B
330
2
100
AcDbSymbolTableRecord
100
AcDbLayerTableRecord
  2
DEFPOINTS
 70
     0
 62
     7
  6
CONTINUOUS
  0
LAYER
  5
1797
330
2
100
AcDbSymbolTableRecord
100
AcDbLayerTableRecord
  2
DIM
 70
     0
 62
     2
  6
CONTINUOUS
  0
ENDTAB
  0
TABLE
  2
STYLE
  5
3
330
0
100
AcDbSymbolTable
 70
     2
  0
STYLE
  5
11
330
3
100
AcDbSymbolTableRecord
100
AcDbTextStyleTableRecord
  2
STANDARD
 70
     0
 40
0.0
 41
1.0
 50
0.0
 71
     0
 42
2.0
  3
txt
  4

  0
STYLE
  5
33
330
3
100
AcDbSymbolTableRecord
100
AcDbTextStyleTableRecord
  2

 70
     1
 40
0.0
 41
1.0
 50
0.0
 71
     0
 42
0.2
  3
ltypeshp.shx
  4

  0
ENDTAB
  0
TABLE
  2
VIEW
  5
6
330
0
100
AcDbSymbolTable
 70
     0
  0
ENDTAB
  0
TABLE
  2
UCS
  5
7
330
0
100
AcDbSymbolTable
 70
     0
  0
ENDTAB
  0
TABLE
  2
APPID
  5
9
330
0
100
AcDbSymbolTable
 70
     2
  0
APPID
  5
12
330
9
100
AcDbSymbolTableRecord
100
AcDbRegAppTableRecord
  2
ACAD
 70
     0
  0
APPID
  5
CD2
330
9
100
AcDbSymbolTableRecord
100
AcDbRegAppTableRecord
  2
DCO15
 70
     0
  0
ENDTAB
  0
TABLE
  2
DIMSTYLE
  5
A
330
0
100
AcDbSymbolTable
 70
     1
  0
DIMSTYLE
105
27
102
{ACAD_REACTORS
330
1753
330
1859
102
}
330
A
100
AcDbSymbolTableRecord
100
AcDbDimStyleTableRecord
  2
STANDARD
 70
     0
  3

  4

  5

  6

  7

 40
1.0
 41
1.5
 42
0.75
 43
1.5
 44
1.5
 45
0.0
 46
0.0
 47
0.0
 48
0.0
140
1.5
141
0.09
142
0.0
143
25.4
144
1.0
145
0.0
146
1.0
147
0.09
 71
     0
 72
     0
 73
     1
 74
     1
 75
     0
 76
     0
 77
     0
 78
     0
170
     0
171
     2
172
     0
173
     0
174
     0
175
     0
176
     0
177
     0
178
     0
270
     2
271
     1
272
     1
273
     2
274
     2
340
11
275
     0
280
     0
281
     0
282
     0
283
     1
284
     0
285
     0
286
     0
287
     3
288
     0
  0
ENDTAB
  0
TABLE
  2
BLOCK_RECORD
  5
1
330
0
100
AcDbSymbolTable
 70
    15
  0
BLOCK_RECORD
  5
1F
102
{ACAD_XDICTIONARY
360
19BA
102
}
330
1
100
AcDbSymbolTableRecord
100
AcDbBlockTableRecord
  2
*MODEL_SPACE
  0
BLOCK_RECORD
  5
23
102
{ACAD_XDICTIONARY
360
19BC
102
}
330
1
100
AcDbSymbolTableRecord
100
AcDbBlockTableRecord
  2
*PAPER_SPACE
  0
BLOCK_RECORD
  5
BDD
330
1
100
AcDbSymbolTableRecord
100
AcDbBlockTableRecord
  2
6202PART3__B0_V3
  0
BLOCK_RECORD
  5
BE4
330
1
100
AcDbSymbolTableRecord
100
AcDbBlockTableRecord
  2
6202PART3__B1_V3
  0
BLOCK_RECORD
  5
BEB
330
1
100
AcDbSymbolTableRecord
100
AcDbBlockTableRecord
  2
6202PART3__B2_V3
  0
BLOCK_RECORD
  5
BF2
330
1
100
AcDbSymbolTableRecord
100
AcDbBlockTableRecord
  2
6202PART3__B3_V3
  0
BLOCK_RECORD
  5
BF9
330
1
100
AcDbSymbolTableRecord
100
AcDbBlockTableRecord
  2
6202PART3__B4_V3
  0
BLOCK_RECORD
  5
C00
330
1
100
AcDbSymbolTableRecord
100
AcDbBlockTableRecord
  2
6202PART3__B5_V3
  0
BLOCK_RECORD
  5
C07
330
1
100
AcDbSymbolTableRecord
100
AcDbBlockTableRecord
  2
6202PART3__B6_V3
  0
BLOCK_RECORD
  5
C0E
330
1
100
AcDbSymbolTableRecord
100
AcDbBlockTableRecord
  2
6202PART3__B7_V3
  0
BLOCK_RECORD
  5
C15
330
1
100
AcDbSymbolTableRecord
100
AcDbBlockTableRecord
  2
6202PART2__B8_V3
  0
BLOCK_RECORD
  5
C1F
330
1
100
AcDbSymbolTableRecord
100
AcDbBlockTableRecord
  2
6202PART1__B9_V3
  0
BLOCK_RECORD
  5
1754
330
1
100
AcDbSymbolTableRecord
100
AcDbBlockTableRecord
  2
*D10
  0
BLOCK_RECORD
  5
185A
330
1
100
AcDbSymbolTableRecord
100
AcDbBlockTableRecord
  2
*D13
  0
ENDTAB
  0
ENDSEC
  0
SECTION
  2
BLOCKS
  0
BLOCK
  5
20
330
1F
100
AcDbEntity
  8
0
100
AcDbBlockBegin
  2
*MODEL_SPACE
 70
     0
 10
0.0
 20
0.0
 30
0.0
  3
*MODEL_SPACE
  1

  0
ENDBLK
  5
21
330
1F
100
AcDbEntity
  8
0
100
AcDbBlockEnd
  0
BLOCK
  5
24
330
23
100
AcDbEntity
 67
     1
  8
0
100
AcDbBlockBegin
  2
*PAPER_SPACE
 70
     0
 10
0.0
 20
0.0
 30
0.0
  3
*PAPER_SPACE
  1

  0
ENDBLK
  5
25
330
23
100
AcDbEntity
 67
     1
  8
0
100
AcDbBlockEnd
  0
BLOCK
  5
BE2
330
BDD
100
AcDbEntity
  8
0
100
AcDbBlockBegin
  2
6202PART3__B0_V3
 70
     0
 10
0.0
 20
0.0
 30
0.0
  3
6202PART3__B0_V3
  1

  0
ARC
  5
BDE
330
BDD
100
AcDbEntity
  8
0
  6
GESTRICHELT
 62
     2
100
AcDbCircle
 10
-8.930759
 20
8.930759
 30
0.0
 40
3.0
100
AcDbArc
 50
269.330105
 51
360.669895
  0
ARC
  5
BDF
330
BDD
100
AcDbEntity
  8
0
  6
CONTINUOUS
 62
     7
100
AcDbCircle
 10
-8.930759
 20
8.930759
 30
0.0
 40
3.0
100
AcDbArc
 50
0.669895
 51
81.094199
  0
ARC
  5
BE0
330
BDD
100
AcDbEntity
  8
0
  6
GESTRICHELT
 62
     2
100
AcDbCircle
 10
-8.930759
 20
8.930759
 30
0.0
 40
3.0
100
AcDbArc
 50
81.094199
 51
188.905801
  0
ARC
  5
BE1
330
BDD
100
AcDbEntity
  8
0
  6
CONTINUOUS
 62
     7
100
AcDbCircle
 10
-8.930759
 20
8.930759
 30
0.0
 40
3.0
100
AcDbArc
 50
188.905801
 51
269.330105
  0
ENDBLK
  5
BE3
330
BDD
100
AcDbEntity
  8
0
100
AcDbBlockEnd
  0
BLOCK
  5
BE9
330
BE4
100
AcDbEntity
  8
0
100
AcDbBlockBegin
  2
6202PART3__B1_V3
 70
     0
 10
0.0
 20
0.0
 30
0.0
  3
6202PART3__B1_V3
  1

  0
ARC
  5
BE5
330
BE4
100
AcDbEntity
  8
0
  6
CONTINUOUS
 62
     7
100
AcDbCircle
 10
-12.63
 20
0.0
 30
0.0
 40
3.0
100
AcDbArc
 50
233.9058009999999
 51
314.330105
  0
ARC
  5
BE6
330
BE4
100
AcDbEntity
  8
0
  6
GESTRICHELT
 62
     2
100
AcDbCircle
 10
-12.63
 20
0.0
 30
0.0
 40
3.0
100
AcDbArc
 50
314.330105
 51
405.669895
  0
ARC
  5
BE7
330
BE4
100
AcDbEntity
  8
0
  6
CONTINUOUS
 62
     7
100
AcDbCircle
 10
-12.63
 20
0.0
 30
0.0
 40
3.0
100
AcDbArc
 50
45.669895
 51
126.094199
  0
ARC
  5
BE8
330
BE4
100
AcDbEntity
  8
0
  6
GESTRICHELT
 62
     2
100
AcDbCircle
 10
-12.63
 20
0.0
 30
0.0
 40
3.0
100
AcDbArc
 50
126.094199
 51
233.9058009999999
  0
ENDBLK
  5
BEA
330
BE4
100
AcDbEntity
  8
0
100
AcDbBlockEnd
  0
BLOCK
  5
BF0
330
BEB
100
AcDbEntity
  8
0
100
AcDbBlockBegin
  2
6202PART3__B2_V3
 70
     0
 10
0.0
 20
0.0
 30
0.0
  3
6202PART3__B2_V3
  1

  0
ARC
  5
BEC
330
BEB
100
AcDbEntity
  8
0
  6
GESTRICHELT
 62
     2
100
AcDbCircle
 10
-8.930759
 20
-8.930759
 30
0.0
 40
3.0
100
AcDbArc
 50
171.094199
 51
278.905801
  0
ARC
  5
BED
330
BEB
100
AcDbEntity
  8
0
  6
CONTINUOUS
 62
     7
100
AcDbCircle
 10
-8.930759
 20
-8.930759
 30
0.0
 40
3.0
100
AcDbArc
 50
278.905801
 51
359.3301049999998
  0
ARC
  5
BEE
330
BEB
100
AcDbEntity
  8
0
  6
GESTRICHELT
 62
     2
100
AcDbCircle
 10
-8.930759
 20
-8.930759
 30
0.0
 40
3.0
100
AcDbArc
 50
359.3301049999998
 51
450.6698949999998
  0
ARC
  5
BEF
330
BEB
100
AcDbEntity
  8
0
  6
CONTINUOUS
 62
     7
100
AcDbCircle
 10
-8.930759
 20
-8.930759
 30
0.0
 40
3.0
100
AcDbArc
 50
90.669895
 51
171.094199
  0
ENDBLK
  5
BF1
330
BEB
100
AcDbEntity
  8
0
100
AcDbBlockEnd
  0
BLOCK
  5
BF7
330
BF2
100
AcDbEntity
  8
0
100
AcDbBlockBegin
  2
6202PART3__B3_V3
 70
     0
 10
0.0
 20
0.0
 30
0.0
  3
6202PART3__B3_V3
  1

  0
ARC
  5
BF3
330
BF2
100
AcDbEntity
  8
0
  6
GESTRICHELT
 62
     2
100
AcDbCircle
 10
0.0
 20
-12.63
 30
0.0
 40
3.0
100
AcDbArc
 50
216.0941989999999
 51
323.9058009999999
  0
ARC
  5
BF4
330
BF2
100
AcDbEntity
  8
0
  6
CONTINUOUS
 62
     7
100
AcDbCircle
 10
0.0
 20
-12.63
 30
0.0
 40
3.0
100
AcDbArc
 50
323.9058009999999
 51
404.330105
  0
ARC
  5
BF5
330
BF2
100
AcDbEntity
  8
0
  6
GESTRICHELT
 62
     2
100
AcDbCircle
 10
0.0
 20
-12.63
 30
0.0
 40
3.0
100
AcDbArc
 50
44.33010499999999
 51
135.6698949999999
  0
ARC
  5
BF6
330
BF2
100
AcDbEntity
  8
0
  6
CONTINUOUS
 62
     7
100
AcDbCircle
 10
0.0
 20
-12.63
 30
0.0
 40
3.0
100
AcDbArc
 50
135.6698949999999
 51
216.0941989999999
  0
ENDBLK
  5
BF8
330
BF2
100
AcDbEntity
  8
0
100
AcDbBlockEnd
  0
BLOCK
  5
BFE
330
BF9
100
AcDbEntity
  8
0
100
AcDbBlockBegin
  2
6202PART3__B4_V3
 70
     0
 10
0.0
 20
0.0
 30
0.0
  3
6202PART3__B4_V3
  1

  0
ARC
  5
BFA
330
BF9
100
AcDbEntity
  8
0
  6
GESTRICHELT
 62
     2
100
AcDbCircle
 10
8.930759
 20
-8.930759
 30
0.0
 40
3.0
100
AcDbArc
 50
261.094199
 51
368.905801
  0
ARC
  5
BFB
330
BF9
100
AcDbEntity
  8
0
  6
CONTINUOUS
 62
     7
100
AcDbCircle
 10
8.930759
 20
-8.930759
 30
0.0
 40
3.0
100
AcDbArc
 50
8.905801
 51
89.33010499999998
  0
ARC
  5
BFC
330
BF9
100
AcDbEntity
  8
0
  6
GESTRICHELT
 62
     2
100
AcDbCircle
 10
8.930759
 20
-8.930759
 30
0.0
 40
3.0
100
AcDbArc
 50
89.33010499999998
 51
180.6698949999999
  0
ARC
  5
BFD
330
BF9
100
AcDbEntity
  8
0
  6
CONTINUOUS
 62
     7
100
AcDbCircle
 10
8.930759
 20
-8.930759
 30
0.0
 40
3.0
100
AcDbArc
 50
180.6698949999999
 51
261.094199
  0
ENDBLK
  5
BFF
330
BF9
100
AcDbEntity
  8
0
100
AcDbBlockEnd
  0
BLOCK
  5
C05
330
C00
100
AcDbEntity
  8
0
100
AcDbBlockBegin
  2
6202PART3__B5_V3
 70
     0
 10
0.0
 20
0.0
 30
0.0
  3
6202PART3__B5_V3
  1

  0
ARC
  5
C01
330
C00
100
AcDbEntity
  8
0
  6
CONTINUOUS
 62
     7
100
AcDbCircle
 10
12.63
 20
0.0
 30
0.0
 40
3.0
100
AcDbArc
 50
225.669895
 51
306.0941989999999
  0
ARC
  5
C02
330
C00
100
AcDbEntity
  8
0
  6
GESTRICHELT
 62
     2
100
AcDbCircle
 10
12.63
 20
0.0
 30
0.0
 40
3.0
100
AcDbArc
 50
306.0941989999999
 51
413.905801
  0
ARC
  5
C03
330
C00
100
AcDbEntity
  8
0
  6
CONTINUOUS
 62
     7
100
AcDbCircle
 10
12.63
 20
0.0
 30
0.0
 40
3.0
100
AcDbArc
 50
53.90580100000001
 51
134.3301049999999
  0
ARC
  5
C04
330
C00
100
AcDbEntity
  8
0
  6
GESTRICHELT
 62
     2
100
AcDbCircle
 10
12.63
 20
0.0
 30
0.0
 40
3.0
100
AcDbArc
 50
134.3301049999999
 51
225.669895
  0
ENDBLK
  5
C06
330
C00
100
AcDbEntity
  8
0
100
AcDbBlockEnd
  0
BLOCK
  5
C0C
330
C07
100
AcDbEntity
  8
0
100
AcDbBlockBegin
  2
6202PART3__B6_V3
 70
     0
 10
0.0
 20
0.0
 30
0.0
  3
6202PART3__B6_V3
  1

  0
ARC
  5
C08
330
C07
100
AcDbEntity
  8
0
  6
GESTRICHELT
 62
     2
100
AcDbCircle
 10
8.930759
 20
8.930759
 30
0.0
 40
3.0
100
AcDbArc
 50
179.330105
 51
270.669895
  0
ARC
  5
C09
330
C07
100
AcDbEntity
  8
0
  6
CONTINUOUS
 62
     7
100
AcDbCircle
 10
8.930759
 20
8.930759
 30
0.0
 40
3.0
100
AcDbArc
 50
270.669895
 51
351.094199
  0
ARC
  5
C0A
330
C07
100
AcDbEntity
  8
0
  6
GESTRICHELT
 62
     2
100
AcDbCircle
 10
8.930759
 20
8.930759
 30
0.0
 40
3.0
100
AcDbArc
 50
351.094199
 51
458.9058009999998
  0
ARC
  5
C0B
330
C07
100
AcDbEntity
  8
0
  6
CONTINUOUS
 62
     7
100
AcDbCircle
 10
8.930759
 20
8.930759
 30
0.0
 40
3.0
100
AcDbArc
 50
98.90580100000001
 51
179.330105
  0
ENDBLK
  5
C0D
330
C07
100
AcDbEntity
  8
0
100
AcDbBlockEnd
  0
BLOCK
  5
C13
330
C0E
100
AcDbEntity
  8
0
100
AcDbBlockBegin
  2
6202PART3__B7_V3
 70
     0
 10
0.0
 20
0.0
 30
0.0
  3
6202PART3__B7_V3
  1

  0
ARC
  5
C0F
330
C0E
100
AcDbEntity
  8
0
  6
GESTRICHELT
 62
     2
100
AcDbCircle
 10
0.0
 20
12.63
 30
0.0
 40
3.0
100
AcDbArc
 50
224.3301049999999
 51
315.669895
  0
ARC
  5
C10
330
C0E
100
AcDbEntity
  8
0
  6
CONTINUOUS
 62
     7
100
AcDbCircle
 10
0.0
 20
12.63
 30
0.0
 40
3.0
100
AcDbArc
 50
315.669895
 51
396.094199
  0
ARC
  5
C11
330
C0E
100
AcDbEntity
  8
0
  6
GESTRICHELT
 62
     2
100
AcDbCircle
 10
0.0
 20
12.63
 30
0.0
 40
3.0
100
AcDbArc
 50
36.09419899999998
 51
143.9058009999999
  0
ARC
  5
C12
330
C0E
100
AcDbEntity
  8
0
  6
CONTINUOUS
 62
     7
100
AcDbCircle
 10
0.0
 20
12.63
 30
0.0
 40
3.0
100
AcDbArc
 50
143.9058009999999
 51
224.3301049999999
  0
ENDBLK
  5
C14
330
C0E
100
AcDbEntity
  8
0
100
AcDbBlockEnd
  0
BLOCK
  5
C1D
330
C15
100
AcDbEntity
  8
0
100
AcDbBlockBegin
  2
6202PART2__B8_V3
 70
     0
 10
0.0
 20
0.0
 30
0.0
  3
6202PART2__B8_V3
  1

  0
CIRCLE
  5
C16
330
C15
100
AcDbEntity
  8
0
  6
GESTRICHELT
 62
     2
100
AcDbCircle
 10
0.0
 20
0.0
 30
0.0
 40
15.63
  0
CIRCLE
  5
C17
330
C15
100
AcDbEntity
  8
0
  6
CONTINUOUS
 62
     7
100
AcDbCircle
 10
0.0
 20
0.0
 30
0.0
 40
17.5
  0
LINE
  5
C18
330
C15
100
AcDbEntity
  8
0
  6
MITTE
 62
     3
100
AcDbLine
 10
18.025
 20
0.0
 30
0.0
 11
-18.025
 21
0.0
 31
0.0
  0
LINE
  5
C19
330
C15
100
AcDbEntity
  8
0
  6
MITTE
 62
     3
100
AcDbLine
 10
0.0
 20
18.025
 30
0.0
 11
0.0
 21
-18.025
 31
0.0
  0
CIRCLE
  5
C1A
330
C15
100
AcDbEntity
  8
0
  6
CONTINUOUS
 62
     7
100
AcDbCircle
 10
0.0
 20
0.0
 30
0.0
 40
16.89999999999999
  0
CIRCLE
  5
C1B
330
C15
100
AcDbEntity
  8
0
  6
CONTINUOUS
 62
     7
100
AcDbCircle
 10
0.0
 20
0.0
 30
0.0
 40
14.8
  0
CIRCLE
  5
C1C
330
C15
100
AcDbEntity
  8
0
  6
CONTINUOUS
 62
     7
100
AcDbCircle
 10
0.0
 20
0.0
 30
0.0
 40
14.59999999999999
  0
ENDBLK
  5
C1E
330
C15
100
AcDbEntity
  8
0
100
AcDbBlockEnd
  0
BLOCK
  5
C27
330
C1F
100
AcDbEntity
  8
0
100
AcDbBlockBegin
  2
6202PART1__B9_V3
 70
     0
 10
0.0
 20
0.0
 30
0.0
  3
6202PART1__B9_V3
  1

  0
CIRCLE
  5
C20
330
C1F
100
AcDbEntity
  8
0
  6
GESTRICHELT
 62
     2
100
AcDbCircle
 10
0.0
 20
0.0
 30
0.0
 40
9.63
  0
CIRCLE
  5
C21
330
C1F
100
AcDbEntity
  8
0
  6
CONTINUOUS
 62
     7
100
AcDbCircle
 10
0.0
 20
0.0
 30
0.0
 40
10.74999999999999
  0
LINE
  5
C22
330
C1F
100
AcDbEntity
  8
0
  6
MITTE
 62
     3
100
AcDbLine
 10
11.0725
 20
0.0
 30
0.0
 11
-11.0725
 21
0.0
 31
0.0
  0
LINE
  5
C23
330
C1F
100
AcDbEntity
  8
0
  6
MITTE
 62
     3
100
AcDbLine
 10
0.0
 20
11.0725
 30
0.0
 11
0.0
 21
-11.0725
 31
0.0
  0
CIRCLE
  5
C24
330
C1F
100
AcDbEntity
  8
0
  6
CONTINUOUS
 62
     7
100
AcDbCircle
 10
0.0
 20
0.0
 30
0.0
 40
10.55
  0
CIRCLE
  5
C25
330
C1F
100
AcDbEntity
  8
0
  6
CONTINUOUS
 62
     7
100
AcDbCircle
 10
0.0
 20
0.0
 30
0.0
 40
8.099999999999999
  0
CIRCLE
  5
C26
330
C1F
100
AcDbEntity
  8
0
  6
CONTINUOUS
 62
     7
100
AcDbCircle
 10
0.0
 20
0.0
 30
0.0
 40
7.5
  0
ENDBLK
  5
C28
330
C1F
100
AcDbEntity
  8
0
100
AcDbBlockEnd
  0
BLOCK
  5
175F
330
1754
100
AcDbEntity
  8
0
100
AcDbBlockBegin
  2
*D10
 70
     1
 10
0.0
 20
0.0
 30
0.0
  3
*D10
  1

  0
LINE
  5
1815
330
1754
100
AcDbEntity
  8
DIM
 62
     0
100
AcDbLine
 10
-600.0
 20
128.2499999999999
 30
0.0
 11
-600.0
 21
116.4324992942924
 31
0.0
  0
LINE
  5
1816
330
1754
100
AcDbEntity
  8
DIM
 62
     0
100
AcDbLine
 10
-596.0
 20
126.75
 30
0.0
 11
-596.0
 21
116.4324992942924
 31
0.0
  0
LINE
  5
1817
330
1754
100
AcDbEntity
  8
DIM
 62
     0
100
AcDbLine
 10
-598.5
 20
117.9324992942924
 30
0.0
 11
-597.5
 21
117.9324992942924
 31
0.0
  0
LINE
  5
1818
330
1754
100
AcDbEntity
  8
DIM
 62
     0
100
AcDbLine
 10
-596.0
 20
117.9324992942924
 30
0.0
 11
-594.5
 21
117.9324992942924
 31
0.0
  0
SOLID
  5
1819
330
1754
100
AcDbEntity
  8
DIM
 62
     0
100
AcDbTrace
 10
-598.5
 20
118.1824992942924
 30
0.0
 11
-598.5
 21
117.6824992942924
 31
0.0
 12
-600.0
 22
117.9324992942924
 32
0.0
 13
-600.0
 23
117.9324992942924
 33
0.0
  0
SOLID
  5
181A
330
1754
100
AcDbEntity
  8
DIM
 62
     0
100
AcDbTrace
 10
-597.5
 20
118.1824992942924
 30
0.0
 11
-597.5
 21
117.6824992942924
 31
0.0
 12
-596.0
 22
117.9324992942924
 32
0.0
 13
-596.0
 23
117.9324992942924
 33
0.0
  0
MTEXT
  5
181B
330
1754
100
AcDbEntity
  8
DIM
 62
     0
100
AcDbMText
 10
-593.0349999999997
 20
117.9324992942924
 30
0.0
 40
1.5
 41
0.0
 71
     5
 72
     1
  1
\A1;4.0
1001
ACAD
1000
MTEXTBEGIN
1070
    73
1070
     1
1070
    44
1040
1.0
1070
    74
1070
     0
1000
MTEXTEND
  0
POINT
  5
181C
330
1754
100
AcDbEntity
  8
DEFPOINTS
 62
     0
100
AcDbPoint
 10
-600.0
 20
129.0
 30
0.0
  0
POINT
  5
181D
330
1754
100
AcDbEntity
  8
DEFPOINTS
 62
     0
100
AcDbPoint
 10
-596.0
 20
127.5
 30
0.0
  0
POINT
  5
181E
330
1754
100
AcDbEntity
  8
DEFPOINTS
 62
     0
100
AcDbPoint
 10
-596.0
 20
117.9324992942924
 30
0.0
  0
ENDBLK
  5
1760
330
1754
100
AcDbEntity
  8
0
100
AcDbBlockEnd
  0
BLOCK
  5
1865
330
185A
100
AcDbEntity
  8
0
100
AcDbBlockBegin
  2
*D13
 70
     1
 10
0.0
 20
0.0
 30
0.0
  3
*D13
  1

  0
LINE
  5
1867
330
185A
100
AcDbEntity
  8
DIM
 62
     0
100
AcDbLine
 10
-600.0
 20
138.7499999999999
 30
0.0
 11
-600.0
 21
146.5171719014724
 31
0.0
  0
LINE
  5
1868
330
185A
100
AcDbEntity
  8
DIM
 62
     0
100
AcDbLine
 10
-588.0
 20
133.9989168102784
 30
0.0
 11
-588.0
 21
146.5171719014724
 31
0.0
  0
LINE
  5
1869
330
185A
100
AcDbEntity
  8
DIM
 62
     0
100
AcDbLine
 10
-598.5
 20
145.0171719014724
 30
0.0
 11
-589.5
 21
145.0171719014724
 31
0.0
  0
LINE
  5
186A
330
185A
100
AcDbEntity
  8
DIM
 62
     0
100
AcDbLine
 10
-588.0
 20
145.0171719014724
 30
0.0
 11
-586.5
 21
145.0171719014724
 31
0.0
  0
SOLID
  5
186B
330
185A
100
AcDbEntity
  8
DIM
 62
     0
100
AcDbTrace
 10
-598.5
 20
145.2671719014723
 30
0.0
 11
-598.5
 21
144.7671719014724
 31
0.0
 12
-600.0
 22
145.0171719014724
 32
0.0
 13
-600.0
 23
145.0171719014724
 33
0.0
  0
SOLID
  5
186C
330
185A
100
AcDbEntity
  8
DIM
 62
     0
100
AcDbTrace
 10
-589.5
 20
145.2671719014723
 30
0.0
 11
-589.5
 21
144.7671719014724
 31
0.0
 12
-588.0
 22
145.0171719014724
 32
0.0
 13
-588.0
 23
145.0171719014724
 33
0.0
  0
MTEXT
  5
186D
330
185A
100
AcDbEntity
  8
DIM
 62
     0
100
AcDbMText
 10
-573.7849999999999
 20
145.0171719014724
 30
0.0
 40
1.5
 41
0.0
 71
     5
 72
     1
  1
\A1;As wide as possible
1001
ACAD
1000
MTEXTBEGIN
1070
    73
1070
     1
1070
    44
1040
1.0
1070
    74
1070
     0
1000
MTEXTEND
  0
POINT
  5
186E
330
185A
100
AcDbEntity
  8
DEFPOINTS
 62
     0
100
AcDbPoint
 10
-600.0
 20
138.0
 30
0.0
  0
POINT
  5
186F
330
185A
100
AcDbEntity
  8
DEFPOINTS
 62
     0
100
AcDbPoint
 10
-588.0
 20
133.2489168102784
 30
0.0
  0
POINT
  5
1870
330
185A
100
AcDbEntity
  8
DEFPOINTS
 62
     0
100
AcDbPoint
 10
-588.0
 20
145.0171719014724
 30
0.0
  0
ENDBLK
  5
1866
330
185A
100
AcDbEntity
  8
0
100
AcDbBlockEnd
  0
ENDSEC
  0
SECTION
  2
ENTITIES
  0
LINE
  5
1649
102
{ACAD_REACTORS
330
16AF
102
}
330
1F
100
AcDbEntity
  8
0
100
AcDbLine
 10
-719.6004804465863
 20
138.0
 30
0.0
 11
-719.6004804465863
 21
123.5
 31
0.0
  0
LINE
  5
164B
102
{ACAD_REACTORS
330
16AF
102
}
330
1F
100
AcDbEntity
  8
0
100
AcDbLine
 10
-716.6004804465862
 20
123.5
 30
0.0
 11
-716.6004804465862
 21
110.0
 31
0.0
  0
LINE
  5
164C
330
1F
100
AcDbEntity
  8
0
100
AcDbLine
 10
-719.6004804465863
 20
138.0
 30
0.0
 11
-709.6004804465863
 21
138.0
 31
0.0
  0
LINE
  5
164D
330
1F
100
AcDbEntity
  8
0
100
AcDbLine
 10
-709.6004804465863
 20
138.0
 30
0.0
 11
-709.6004804465863
 21
134.05
 31
0.0
  0
LINE
  5
164E
102
{ACAD_REACTORS
330
16AF
102
}
330
1F
100
AcDbEntity
  8
0
100
AcDbLine
 10
-708.8004804465863
 20
133.25
 30
0.0
 11
-689.6004804465863
 21
133.25
 31
0.0
  0
LINE
  5
1650
102
{ACAD_REACTORS
330
16AF
102
}
330
1F
100
AcDbEntity
  8
0
100
AcDbLine
 10
-709.6004804465863
 20
133.9999999999999
 30
0.0
 11
-719.6004804465863
 21
133.9999999999999
 31
0.0
  0
LINE
  5
1654
102
{ACAD_REACTORS
330
16AF
102
}
330
1F
100
AcDbEntity
  8
0
100
AcDbLine
 10
-716.6004804465862
 20
110.0
 30
0.0
 11
-693.6004804465863
 21
110.0
 31
0.0
  0
LINE
  5
1655
102
{ACAD_REACTORS
330
16AF
102
}
330
1F
100
AcDbEntity
  8
0
100
AcDbLine
 10
-693.6004804465863
 20
110.0
 30
0.0
 11
-693.6004804465863
 21
101.2474532550212
 31
0.0
  0
LINE
  5
1657
102
{ACAD_REACTORS
330
16AF
102
}
330
1F
100
AcDbEntity
  8
0
100
AcDbLine
 10
-685.6004804465861
 20
102.6747759315079
 30
0.0
 11
-685.6004804465861
 21
129.2499999999999
 31
0.0
  0
LINE
  5
165C
102
{ACAD_REACTORS
330
16AF
102
}
330
1F
100
AcDbEntity
  8
0
100
AcDbLine
 10
-685.6004804465861
 20
129.2499999999999
 30
0.0
 11
-689.6004804465863
 21
133.25
 31
0.0
  0
LINE
  5
165D
102
{ACAD_REACTORS
330
16AF
102
}
330
1F
100
AcDbEntity
  8
0
100
AcDbLine
 10
-716.6004804465862
 20
123.5
 30
0.0
 11
-719.6004804465863
 21
123.5
 31
0.0
  0
LINE
  5
165F
330
1F
100
AcDbEntity
  8
CENTRE
 48
0.1
100
AcDbLine
 10
-703.7327021564183
 20
135.9738796916767
 30
0.0
 11
-725.3522035826582
 21
135.9738796916767
 31
0.0
  0
LINE
  5
1665
330
1F
100
AcDbEntity
  8
CENTRE
 48
0.1
100
AcDbLine
 10
-691.8085409530451
 20
116.4999999999997
 30
0.0
 11
-720.5029705521934
 21
116.5
 31
0.0
  0
LINE
  5
166F
102
{ACAD_REACTORS
330
16AF
102
}
330
1F
100
AcDbEntity
  8
0
100
AcDbLine
 10
-716.6004804465862
 20
120.5
 30
0.0
 11
-700.7019306792942
 21
120.5
 31
0.0
  0
LINE
  5
1670
102
{ACAD_REACTORS
330
16AF
102
}
330
1F
100
AcDbEntity
  8
0
100
AcDbLine
 10
-700.7019306792942
 20
120.5
 30
0.0
 11
-699.7019306792942
 21
119.5
 31
0.0
  0
LINE
  5
1672
102
{ACAD_REACTORS
330
16AF
102
}
330
1F
100
AcDbEntity
  8
0
100
AcDbLine
 10
-699.7019306792942
 20
119.5
 30
0.0
 11
-696.7019306792942
 21
116.5
 31
0.0
  0
LINE
  5
1673
102
{ACAD_REACTORS
330
16AF
102
}
330
1F
100
AcDbEntity
  8
0
100
AcDbLine
 10
-696.7019306792942
 20
116.5
 30
0.0
 11
-699.7019306792942
 21
113.5
 31
0.0
  0
LINE
  5
1675
102
{ACAD_REACTORS
330
16AF
102
}
330
1F
100
AcDbEntity
  8
0
100
AcDbLine
 10
-699.7019306792942
 20
113.5
 30
0.0
 11
-700.7019306792942
 21
112.5
 31
0.0
  0
LINE
  5
1676
102
{ACAD_REACTORS
330
16AF
102
}
330
1F
100
AcDbEntity
  8
0
100
AcDbLine
 10
-700.7019306792942
 20
112.5
 30
0.0
 11
-716.6004804465862
 21
112.5
 31
0.0
  0
LINE
  5
1677
330
1F
100
AcDbEntity
  8
0
100
AcDbLine
 10
-699.7019306792942
 20
113.5
 30
0.0
 11
-716.6004804465862
 21
113.5
 31
0.0
  0
LINE
  5
1678
330
1F
100
AcDbEntity
  8
0
100
AcDbLine
 10
-699.7019306792942
 20
119.5
 30
0.0
 11
-716.6004804465862
 21
119.5
 31
0.0
  0
ARC
  5
1679
102
{ACAD_REACTORS
330
16AF
102
}
330
1F
100
AcDbEntity
  8
0
100
AcDbCircle
 10
-708.8004804465863
 20
134.05
 30
0.0
 40
0.8
100
AcDbArc
 50
180.0
 51
270.0
  0
LINE
  5
167A
102
{ACAD_REACTORS
330
16AF
102
}
330
1F
100
AcDbEntity
  8
0
100
AcDbLine
 10
-697.7974835566199
 20
99.84940514433446
 30
0.0
 11
-689.7876912883492
 21
102.5175172838935
 31
0.0
  0
LINE
  5
167B
102
{ACAD_REACTORS
330
16AF
102
}
330
1F
100
AcDbEntity
  8
0
100
AcDbLine
 10
-689.7876912883492
 20
102.5175172838935
 30
0.0
 11
-690.0546823645576
 21
101.0055877906149
 31
0.0
  0
LINE
  5
167C
102
{ACAD_REACTORS
330
16AF
102
}
330
1F
100
AcDbEntity
  8
0
100
AcDbLine
 10
-690.0546823645576
 20
101.0055877906149
 30
0.0
 11
-683.6468498828751
 21
103.4068884465414
 31
0.0
  0
HATCH
  5
16AF
330
1F
100
AcDbEntity
  8
HATCH
100
AcDbHatch
 10
0.0
 20
0.0
 30
0.0
210
0.0
220
0.0
230
1.0
  2
_USER
 70
     0
 71
     1
 91
        1
 92
        7
 72
     1
 73
     1
 93
       20
 10
-700.7019306792942
 20
120.5
 42
0.0
 10
-699.7019306792942
 20
119.5
 42
0.0
 10
-696.7019306792942
 20
116.5
 42
0.0
 10
-699.7019306792942
 20
113.5
 42
0.0
 10
-700.7019306792942
 20
112.5
 42
0.0
 10
-716.6004804465862
 20
112.5
 42
0.0
 10
-716.6004804465862
 20
110.0
 42
0.0
 10
-693.6004804465863
 20
110.0
 42
0.0
 10
-693.6004804465863
 20
101.247453255021
 42
0.0
 10
-689.7876912883492
 20
102.5175172838935
 42
0.0
 10
-690.0546823645575
 20
101.005587790615
 42
0.0
 10
-685.6004804465861
 20
102.6747759315079
 42
0.0
 10
-685.6004804465861
 20
129.2499999999999
 42
0.0
 10
-689.6004804465863
 20
133.25
 42
0.0
 10
-708.8004804465863
 20
133.25
 42
-0.3960121918356787
 10
-709.5989164177199
 20
133.9999999999999
 42
0.0
 10
-719.6004804465863
 20
133.9999999999999
 42
0.0
 10
-719.6004804465863
 20
123.5
 42
0.0
 10
-716.6004804465862
 20
123.5
 42
0.0
 10
-716.6004804465862
 20
120.5
 42
0.0
 97
       19
330
165C
330
164E
330
1679
330
1650
330
1649
330
165D
330
164B
330
166F
330
1670
330
1672
330
1673
330
1675
330
1676
330
1654
330
1655
330
167A
330
167B
330
167C
330
1657
 75
     0
 76
     0
 52
45.0
 41
1.0
 77
     0
 78
     1
 53
45.0
 43
-269.6004804465863
 44
0.0
 45
-0.7071067811865475
 46
0.7071067811865476
 79
     0
 47
0.0889370739671142
 98
        1
 10
-701.5353871826286
 20
125.8190317753232
  0
HATCH
  5
16CB
330
1F
100
AcDbEntity
  8
HATCH
100
AcDbHatch
 10
0.0
 20
0.0
 30
0.0
210
0.0
220
0.0
230
1.0
  2
_USER
 70
     0
 71
     1
 91
        1
 92
        7
 72
     1
 73
     1
 93
       20
 10
-658.6405117518767
 20
120.5
 42
0.0
 10
-657.6405117518767
 20
119.5
 42
0.0
 10
-654.6405117518767
 20
116.4999999999997
 42
0.0
 10
-657.6405117518767
 20
113.5
 42
0.0
 10
-658.6405117518769
 20
112.5
 42
0.0
 10
-674.5390615191685
 20
112.4999999999999
 42
0.0
 10
-674.5390615191685
 20
109.9999999999997
 42
0.0
 10
-651.5390615191686
 20
110.0
 42
0.0
 10
-651.5390615191686
 20
101.247453255021
 42
0.0
 10
-647.7262723609316
 20
102.5175172838935
 42
0.0
 10
-647.9932634371401
 20
101.0055877906149
 42
0.0
 10
-643.5390615191685
 20
102.6747759315079
 42
0.0
 10
-643.5390615191685
 20
129.2499999999999
 42
0.0
 10
-647.5390615191686
 20
133.25
 42
0.0
 10
-666.7390615191687
 20
133.25
 42
-0.3960121918356787
 10
-667.5374974903022
 20
133.9999999999999
 42
0.0
 10
-677.5390615191687
 20
133.9999999999999
 42
0.0
 10
-677.5390615191686
 20
123.5
 42
0.0
 10
-674.5390615191686
 20
123.5
 42
0.0
 10
-674.5390615191686
 20
120.5
 42
0.0
 97
       19
330
16E4
330
16DC
330
16E1
330
16DF
330
16DE
330
16E0
330
16CC
330
16D3
330
16D8
330
16CE
330
16CF
330
16D7
330
16D4
330
16D0
330
16D9
330
16D1
330
16DB
330
16DA
330
16CD
 75
     0
 76
     0
 52
45.0
 41
1.0
 77
     0
 78
     1
 53
45.0
 43
-227.5390615191685
 44
0.0
 45
-0.7071067811865475
 46
0.7071067811865476
 79
     0
 47
0.0889370739671142
 98
        1
 10
-659.473968255211
 20
125.8190317753232
  0
LINE
  5
16CC
102
{ACAD_REACTORS
330
16CB
102
}
330
1F
100
AcDbEntity
  8
0
100
AcDbLine
 10
-674.5390615191686
 20
123.5
 30
0.0
 11
-674.5390615191686
 21
110.0
 31
0.0
  0
LINE
  5
16CD
102
{ACAD_REACTORS
330
16CB
102
}
330
1F
100
AcDbEntity
  8
0
100
AcDbLine
 10
-643.5390615191685
 20
102.6747759315079
 30
0.0
 11
-643.5390615191685
 21
129.2499999999999
 31
0.0
  0
LINE
  5
16CE
102
{ACAD_REACTORS
330
16CB
102
}
330
1F
100
AcDbEntity
  8
0
100
AcDbLine
 10
-657.6405117518767
 20
119.5
 30
0.0
 11
-654.6405117518767
 21
116.5
 31
0.0
  0
LINE
  5
16CF
102
{ACAD_REACTORS
330
16CB
102
}
330
1F
100
AcDbEntity
  8
0
100
AcDbLine
 10
-654.6405117518767
 20
116.5
 30
0.0
 11
-657.6405117518767
 21
113.5
 31
0.0
  0
LINE
  5
16D0
102
{ACAD_REACTORS
330
16CB
102
}
330
1F
100
AcDbEntity
  8
0
100
AcDbLine
 10
-674.5390615191686
 20
110.0
 30
0.0
 11
-651.5390615191686
 21
110.0
 31
0.0
  0
LINE
  5
16D1
102
{ACAD_REACTORS
330
16CB
102
}
330
1F
100
AcDbEntity
  8
0
100
AcDbLine
 10
-655.7360646292022
 20
99.84940514433446
 30
0.0
 11
-647.7262723609316
 21
102.5175172838935
 31
0.0
  0
LINE
  5
16D2
330
1F
100
AcDbEntity
  8
CENTRE
 48
0.1
100
AcDbLine
 10
-649.7471220256275
 20
116.4999999999997
 30
0.0
 11
-678.4415516247758
 21
116.5
 31
0.0
  0
LINE
  5
16D3
102
{ACAD_REACTORS
330
16CB
102
}
330
1F
100
AcDbEntity
  8
0
100
AcDbLine
 10
-674.5390615191686
 20
120.5
 30
0.0
 11
-658.6405117518767
 21
120.5
 31
0.0
  0
LINE
  5
16D4
102
{ACAD_REACTORS
330
16CB
102
}
330
1F
100
AcDbEntity
  8
0
100
AcDbLine
 10
-658.6405117518767
 20
112.5
 30
0.0
 11
-674.5390615191686
 21
112.5
 31
0.0
  0
LINE
  5
16D5
330
1F
100
AcDbEntity
  8
0
100
AcDbLine
 10
-657.6405117518767
 20
119.5
 30
0.0
 11
-674.5390615191686
 21
119.5
 31
0.0
  0
LINE
  5
16D6
330
1F
100
AcDbEntity
  8
0
100
AcDbLine
 10
-657.6405117518767
 20
113.5
 30
0.0
 11
-674.5390615191686
 21
113.5
 31
0.0
  0
LINE
  5
16D7
102
{ACAD_REACTORS
330
16CB
102
}
330
1F
100
AcDbEntity
  8
0
100
AcDbLine
 10
-657.6405117518767
 20
113.5
 30
0.0
 11
-658.6405117518767
 21
112.5
 31
0.0
  0
LINE
  5
16D8
102
{ACAD_REACTORS
330
16CB
102
}
330
1F
100
AcDbEntity
  8
0
100
AcDbLine
 10
-658.6405117518767
 20
120.5
 30
0.0
 11
-657.6405117518767
 21
119.5
 31
0.0
  0
LINE
  5
16D9
102
{ACAD_REACTORS
330
16CB
102
}
330
1F
100
AcDbEntity
  8
0
100
AcDbLine
 10
-651.5390615191686
 20
110.0
 30
0.0
 11
-651.5390615191686
 21
101.2474532550212
 31
0.0
  0
LINE
  5
16DA
102
{ACAD_REACTORS
330
16CB
102
}
330
1F
100
AcDbEntity
  8
0
100
AcDbLine
 10
-647.99326343714
 20
101.0055877906149
 30
0.0
 11
-641.5854309554576
 21
103.4068884465414
 31
0.0
  0
LINE
  5
16DB
102
{ACAD_REACTORS
330
16CB
102
}
330
1F
100
AcDbEntity
  8
0
100
AcDbLine
 10
-647.7262723609316
 20
102.5175172838935
 30
0.0
 11
-647.99326343714
 21
101.0055877906149
 31
0.0
  0
LINE
  5
16DC
102
{ACAD_REACTORS
330
16CB
102
}
330
1F
100
AcDbEntity
  8
0
100
AcDbLine
 10
-666.7390615191687
 20
133.25
 30
0.0
 11
-647.5390615191686
 21
133.25
 31
0.0
  0
LINE
  5
16DD
330
1F
100
AcDbEntity
  8
0
100
AcDbLine
 10
-667.5390615191686
 20
138.0
 30
0.0
 11
-667.5390615191686
 21
134.05
 31
0.0
  0
LINE
  5
16DE
102
{ACAD_REACTORS
330
16CB
102
}
330
1F
100
AcDbEntity
  8
0
100
AcDbLine
 10
-677.5390615191686
 20
138.0
 30
0.0
 11
-677.5390615191686
 21
123.5
 31
0.0
  0
LINE
  5
16DF
102
{ACAD_REACTORS
330
16CB
102
}
330
1F
100
AcDbEntity
  8
0
100
AcDbLine
 10
-667.5390615191686
 20
133.9999999999999
 30
0.0
 11
-677.5390615191686
 21
133.9999999999999
 31
0.0
  0
LINE
  5
16E0
102
{ACAD_REACTORS
330
16CB
102
}
330
1F
100
AcDbEntity
  8
0
100
AcDbLine
 10
-674.5390615191686
 20
123.5
 30
0.0
 11
-677.5390615191686
 21
123.5
 31
0.0
  0
ARC
  5
16E1
102
{ACAD_REACTORS
330
16CB
102
}
330
1F
100
AcDbEntity
  8
0
100
AcDbCircle
 10
-666.7390615191687
 20
134.05
 30
0.0
 40
0.8
100
AcDbArc
 50
180.0
 51
270.0
  0
LINE
  5
16E2
330
1F
100
AcDbEntity
  8
CENTRE
 48
0.1
100
AcDbLine
 10
-661.6712832290009
 20
135.9738796916767
 30
0.0
 11
-683.2907846552408
 21
135.9738796916767
 31
0.0
  0
LINE
  5
16E3
330
1F
100
AcDbEntity
  8
0
100
AcDbLine
 10
-677.5390615191686
 20
138.0
 30
0.0
 11
-667.5390615191686
 21
138.0
 31
0.0
  0
LINE
  5
16E4
102
{ACAD_REACTORS
330
16CB
102
}
330
1F
100
AcDbEntity
  8
0
100
AcDbLine
 10
-643.5390615191685
 20
129.2499999999999
 30
0.0
 11
-647.5390615191686
 21
133.25
 31
0.0
  0
LINE
  5
16EF
330
1F
100
AcDbEntity
  8
HIDDEN
100
AcDbLine
 10
-673.5390615191686
 20
130.0
 30
0.0
 11
-673.5390615191686
 21
127.5
 31
0.0
  0
LINE
  5
16F0
330
1F
100
AcDbEntity
  8
HIDDEN
100
AcDbLine
 10
-673.5390615191686
 20
127.5
 30
0.0
 11
-665.5390615191686
 21
127.5
 31
0.0
  0
LINE
  5
16F1
330
1F
100
AcDbEntity
  8
HIDDEN
100
AcDbLine
 10
-665.5390615191686
 20
127.5
 30
0.0
 11
-665.5390615191686
 21
133.25
 31
0.0
  0
LINE
  5
1703
102
{ACAD_REACTORS
330
1840
102
}
330
1F
100
AcDbEntity
  8
0
100
AcDbLine
 10
-589.2
 20
133.25
 30
0.0
 11
-588.0
 21
133.25
 31
0.0
  0
LINE
  5
1704
330
1F
100
AcDbEntity
  8
CENTRE
 48
0.1
100
AcDbLine
 10
-584.1322217098322
 20
135.9738796916767
 30
0.0
 11
-605.7517231360718
 21
135.9738796916767
 31
0.0
  0
LINE
  5
1705
330
1F
100
AcDbEntity
  8
0
100
AcDbLine
 10
-590.0
 20
138.0
 30
0.0
 11
-590.0
 21
134.05
 31
0.0
  0
LINE
  5
1706
102
{ACAD_REACTORS
330
1840
102
}
330
1F
100
AcDbEntity
  8
0
100
AcDbLine
 10
-600.0
 20
138.0
 30
0.0
 11
-600.0
 21
130.0
 31
0.0
  0
LINE
  5
1707
102
{ACAD_REACTORS
330
1840
102
}
330
1F
100
AcDbEntity
  8
0
100
AcDbLine
 10
-588.0
 20
127.5
 30
0.0
 11
-588.0
 21
133.25
 31
0.0
  0
LINE
  5
1708
102
{ACAD_REACTORS
330
1840
102
}
330
1F
100
AcDbEntity
  8
0
100
AcDbLine
 10
-596.0
 20
130.0
 30
0.0
 11
-596.0
 21
127.5
 31
0.0
  0
LINE
  5
1709
102
{ACAD_REACTORS
330
1840
102
}
330
1F
100
AcDbEntity
  8
0
100
AcDbLine
 10
-596.0
 20
127.5
 30
0.0
 11
-588.0
 21
127.5
 31
0.0
  0
LINE
  5
170B
102
{ACAD_REACTORS
330
1840
102
}
330
1F
100
AcDbEntity
  8
0
100
AcDbLine
 10
-590.0
 20
133.9999999999999
 30
0.0
 11
-600.0
 21
133.9999999999999
 31
0.0
  0
ARC
  5
170D
102
{ACAD_REACTORS
330
1840
102
}
330
1F
100
AcDbEntity
  8
0
100
AcDbCircle
 10
-589.2
 20
134.05
 30
0.0
 40
0.8
100
AcDbArc
 50
180.0
 51
270.0
  0
LINE
  5
170E
330
1F
100
AcDbEntity
  8
0
100
AcDbLine
 10
-600.0
 20
138.0
 30
0.0
 11
-590.0
 21
138.0
 31
0.0
  0
DIMENSION
  5
1753
330
1F
100
AcDbEntity
  8
DIM
100
AcDbDimension
  2
*D10
 10
-596.0
 20
117.9324992942924
 30
0.0
 11
-593.0349999999997
 21
117.9324992942924
 31
0.0
 70
    32
  3
STANDARD
100
AcDbAlignedDimension
 13
-600.0
 23
129.0
 33
0.0
 14
-596.0
 24
127.5
 34
0.0
100
AcDbRotatedDimension
  0
LINE
  5
178E
330
1F
100
AcDbEntity
  8
DIM
100
AcDbLine
 10
-600.5905718647746
 20
130.0
 30
0.0
 11
-604.5841940057044
 21
129.969470718385
 31
0.0
  0
LINE
  5
178F
330
1F
100
AcDbEntity
  8
DIM
100
AcDbLine
 10
-587.25
 20
127.5
 30
0.0
 11
-583.5766274666243
 21
127.5
 31
0.0
  0
LEADER
  5
1790
330
1F
100
AcDbEntity
  8
DIM
100
AcDbLeader
  3
STANDARD
 73
     0
 40
4.0
 41
13.5
 76
     3
 10
-584.7254777818188
 20
127.4999999999999
 30
0.0
 10
-584.7254777818188
 20
121.9507392019991
 30
0.0
 10
-582.0685456896227
 20
122.0868993162435
 30
0.0
340
1791
213
-0.5434394634742148
223
-0.7778497066782251
233
0.0
1001
ACAD
1000
DSTYLE
1002
{
1070
     5
1000

1070
    77
1070
     0
1070
   147
1040
0.09
1070
   342
1005
0
1002
}
  0
MTEXT
  5
1791
102
{ACAD_REACTORS
330
1790
102
}
330
1F
100
AcDbEntity
  8
DIM
100
AcDbMText
 10
-581.4351062261486
 20
122.8647490229217
 30
0.0
 40
1.5
 41
0.0
 71
     1
 72
     1
  1
Machine to\P255mm ID
1001
ACAD
1000
MTEXTBEGIN
1070
    73
1070
     1
1070
    44
1040
1.0
1070
    74
1070
     0
1000
MTEXTEND
  0
LEADER
  5
1794
330
1F
100
AcDbEntity
  8
DIM
100
AcDbLeader
  3
STANDARD
 73
     0
 75
     1
 40
7.0
 41
24.24999999999998
 76
     4
 10
-603.5248517454301
 20
129.9775688701503
 30
0.0
 10
-603.5173787111066
 20
121.7867293810759
 30
0.0
 10
-605.0959819893241
 20
120.7206648401742
 30
0.0
 10
-606.595981989324
 20
120.7206648401742
 30
0.0
340
1795
213
0.5458669253845301
223
0.75
233
0.0
1001
ACAD
1000
DSTYLE
1002
{
1070
     5
1000

1070
    77
1070
     0
1070
   147
1040
0.09
1070
   342
1005
0
1002
}
  0
MTEXT
  5
1795
102
{ACAD_REACTORS
330
1794
102
}
330
1F
100
AcDbEntity
  8
DIM
100
AcDbMText
 10
-607.2318489147087
 20
119.9706648401742
 30
0.0
 40
1.5
 41
0.0
 71
     9
 72
     1
  1
Machine to \P260mm ID to suit \Ppressure plate OD
1001
ACAD
1000
MTEXTBEGIN
1070
    73
1070
     1
1070
    44
1040
1.0
1070
    74
1070
     0
1000
MTEXTEND
  0
LINE
  5
17B3
102
{ACAD_REACTORS
330
1A1E
102
}
330
1F
100
AcDbEntity
  8
0
100
AcDbLine
 10
-652.1880759765304
 20
38.4389525569276
 30
0.0
 11
-671.6880759765301
 21
38.4389525569276
 31
0.0
  0
LINE
  5
17B5
102
{ACAD_REACTORS
330
1A1E
102
}
330
1F
100
AcDbEntity
  8
0
100
AcDbLine
 10
-671.6880759765301
 20
38.43895255692763
 30
0.0
 11
-671.6880759765301
 21
50.63895255692759
 31
0.0
  0
LINE
  5
17B6
102
{ACAD_REACTORS
330
1A1E
102
}
330
1F
100
AcDbEntity
  8
0
100
AcDbLine
 10
-654.6880759765302
 20
52.63895255692759
 30
0.0
 11
-654.6880759765302
 21
53.63895255692759
 31
0.0
  0
LINE
  5
17B7
102
{ACAD_REACTORS
330
1A1E
102
}
330
1F
100
AcDbEntity
  8
0
100
AcDbLine
 10
-651.1880759765304
 20
22.9668757086975
 30
0.0
 11
-651.1880759765304
 21
37.4389525569276
 31
0.0
  0
LINE
  5
17B8
102
{ACAD_REACTORS
330
1A1E
102
}
330
1F
100
AcDbEntity
  8
0
100
AcDbLine
 10
-645.3880759765302
 20
53.6389525569276
 30
0.0
 11
-645.3880759765302
 21
59.60778161318978
 31
0.0
  0
LINE
  5
17BD
102
{ACAD_REACTORS
330
1A1E
102
}
330
1F
100
AcDbEntity
  8
0
100
AcDbLine
 10
-628.4880759765302
 20
61.13895255692757
 30
0.0
 11
-628.4880759765302
 21
24.48123889143516
 31
0.0
  0
LINE
  5
17BE
102
{ACAD_REACTORS
330
1A1E
102
}
330
1F
100
AcDbEntity
  8
0
100
AcDbLine
 10
-655.6431928653046
 20
21.74473531009434
 30
0.0
 11
-638.8100841971552
 21
26.36244179255717
 31
0.0
  0
LINE
  5
17BF
330
1F
100
AcDbEntity
  8
0
100
AcDbLine
 10
-638.8100841971552
 20
26.36244179255717
 30
0.0
 11
-638.8100841971552
 21
26.36244179255717
 31
0.0
  0
LINE
  5
17C0
102
{ACAD_REACTORS
330
1A1E
102
}
330
1F
100
AcDbEntity
  8
0
100
AcDbLine
 10
-638.8100841971552
 20
26.36244179255717
 30
0.0
 11
-639.4702061967985
 21
21.41489983767891
 31
0.0
  0
LINE
  5
17C1
102
{ACAD_REACTORS
330
1A1E
102
}
330
1F
100
AcDbEntity
  8
0
100
AcDbLine
 10
-639.4702061967985
 20
21.41489983767891
 30
0.0
 11
-623.2266278793197
 21
25.95029666585602
 31
0.0
  0
LINE
  5
17C2
330
1F
100
AcDbEntity
  8
CENTRE
100
AcDbLine
 10
-641.8961364829891
 20
46.13895255692756
 30
0.0
 11
-678.4525240796011
 21
46.1389525569276
 31
0.0
  0
LINE
  5
17C3
102
{ACAD_REACTORS
330
1A1E
102
}
330
1F
100
AcDbEntity
  8
0
100
AcDbLine
 10
-649.7895262092383
 20
49.13895255692756
 30
0.0
 11
-646.7895262092387
 21
46.13895255692756
 31
0.0
  0
LINE
  5
17C4
102
{ACAD_REACTORS
330
1A1E
102
}
330
1F
100
AcDbEntity
  8
0
100
AcDbLine
 10
-646.7895262092387
 20
46.13895255692756
 30
0.0
 11
-649.7895262092383
 21
43.13895255692756
 31
0.0
  0
LINE
  5
17C5
102
{ACAD_REACTORS
330
1A1E
102
}
330
1F
100
AcDbEntity
  8
0
100
AcDbLine
 10
-650.7895262092387
 20
42.13895255692756
 30
0.0
 11
-671.6880759765301
 21
42.13895255692756
 31
0.0
  0
LINE
  5
17C6
330
1F
100
AcDbEntity
  8
0
100
AcDbLine
 10
-649.7895262092383
 20
43.13895255692756
 30
0.0
 11
-671.6880759765301
 21
43.13895255692756
 31
0.0
  0
LINE
  5
17C7
102
{ACAD_REACTORS
330
1A1E
102
}
330
1F
100
AcDbEntity
  8
0
100
AcDbLine
 10
-649.7895262092383
 20
43.13895255692756
 30
0.0
 11
-650.7895262092387
 21
42.13895255692756
 31
0.0
  0
LINE
  5
17C8
102
{ACAD_REACTORS
330
1A1E
102
}
330
1F
100
AcDbEntity
  8
0
100
AcDbLine
 10
-671.6880759765301
 20
50.13895255692756
 30
0.0
 11
-650.7895262092387
 21
50.13895255692756
 31
0.0
  0
LINE
  5
17C9
330
1F
100
AcDbEntity
  8
0
100
AcDbLine
 10
-649.7895262092383
 20
49.13895255692756
 30
0.0
 11
-671.6880759765301
 21
49.13895255692756
 31
0.0
  0
LINE
  5
17CA
102
{ACAD_REACTORS
330
1A1E
102
}
330
1F
100
AcDbEntity
  8
0
100
AcDbLine
 10
-650.7895262092387
 20
50.13895255692756
 30
0.0
 11
-649.7895262092383
 21
49.13895255692756
 31
0.0
  0
LINE
  5
17CD
102
{ACAD_REACTORS
330
1A1E
102
}
330
1F
100
AcDbEntity
  8
0
100
AcDbLine
 10
-642.1438025091382
 20
61.13895255692757
 30
0.0
 11
-628.4880759765302
 21
61.13895255692757
 31
0.0
  0
LINE
  5
17D2
102
{ACAD_REACTORS
330
1A1E
102
}
330
1F
100
AcDbEntity
  8
0
100
AcDbLine
 10
-645.3880759765302
 20
53.6389525569276
 30
0.0
 11
-654.6880759765302
 21
53.6389525569276
 31
0.0
  0
LINE
  5
17D3
102
{ACAD_REACTORS
330
1A1E
102
}
330
1F
100
AcDbEntity
  8
0
100
AcDbLine
 10
-654.6880759765302
 20
52.6389525569276
 30
0.0
 11
-663.6880759765304
 21
52.63895255692759
 31
0.0
  0
LINE
  5
17D4
102
{ACAD_REACTORS
330
1A1E
102
}
330
1F
100
AcDbEntity
  8
0
100
AcDbLine
 10
-645.3880759765302
 20
59.60778161318978
 30
0.0
 11
-644.0880759765303
 21
59.60778161318978
 31
0.0
  0
ARC
  5
17D9
102
{ACAD_REACTORS
330
1A1E
102
}
330
1F
100
AcDbEntity
  8
0
100
AcDbCircle
 10
-644.0880759765303
 20
61.6077816131898
 30
0.0
 40
2.0
100
AcDbArc
 50
270.0
 51
346.4428862658719
  0
ARC
  5
17DA
102
{ACAD_REACTORS
330
1A1E
102
}
330
1F
100
AcDbEntity
  8
0
100
AcDbCircle
 10
-652.1880759765304
 20
37.4389525569276
 30
0.0
 40
1.0
100
AcDbArc
 50
0.0
 51
89.99999999999994
  0
LINE
  5
1826
102
{ACAD_REACTORS
330
1840
102
}
330
1F
100
AcDbEntity
  8
0
100
AcDbLine
 10
-600.0
 20
130.0
 30
0.0
 11
-596.0
 21
130.0
 31
0.0
  0
LINE
  5
1828
330
1F
100
AcDbEntity
  8
HIDDEN
100
AcDbLine
 10
-677.5390615191686
 20
130.0
 30
0.0
 11
-673.5390615191686
 21
130.0
 31
0.0
  0
HATCH
  5
1840
330
1F
100
AcDbEntity
  8
HATCH
100
AcDbHatch
 10
0.0
 20
0.0
 30
0.0
210
0.0
220
0.0
230
1.0
  2
_USER
 70
     0
 71
     1
 91
        1
 92
        7
 72
     1
 73
     1
 93
        8
 10
-588.0
 20
133.25
 42
0.0
 10
-589.2
 20
133.25
 42
-0.3960121918356787
 10
-589.9984359711336
 20
133.9999999999999
 42
0.0
 10
-600.0
 20
133.9999999999999
 42
0.0
 10
-600.0
 20
129.9999999999999
 42
0.0
 10
-596.0
 20
130.0
 42
0.0
 10
-596.0
 20
127.5
 42
0.0
 10
-588.0
 20
127.5
 42
0.0
 97
        8
330
1703
330
170D
330
170B
330
1706
330
1826
330
1708
330
1709
330
1707
 75
     0
 76
     0
 52
45.0
 41
1.0
 77
     0
 78
     1
 53
45.0
 43
0.0
 44
0.0
 45
-0.7071067811865475
 46
0.7071067811865476
 79
     0
 47
0.0706064899549642
 98
        1
 10
-591.2786882139194
 20
130.1812911096485
  0
DIMENSION
  5
1859
330
1F
100
AcDbEntity
  8
DIM
100
AcDbDimension
  2
*D13
 10
-588.0
 20
145.0171719014724
 30
0.0
 11
-573.7849999999999
 21
145.0171719014724
 31
0.0
 70
    32
  1
As wide as possible
  3
STANDARD
100
AcDbAlignedDimension
 13
-600.0
 23
138.0
 33
0.0
 14
-588.0
 24
133.2489168102784
 34
0.0
100
AcDbRotatedDimension
  0
LEADER
  5
1871
330
1F
100
AcDbEntity
  8
DIM
100
AcDbLeader
  3
STANDARD
 73
     0
 74
     0
 75
     1
 40
9.5
 41
33.5
 76
     4
 10
-665.5390615191686
 20
133.25
 30
0.0
 10
-665.5390615191686
 20
143.2667122312276
 30
0.0
 10
-665.4497745986223
 20
145.4154183072704
 30
0.0
 10
-663.9497745986223
 20
145.4154183072704
 30
0.0
340
1872
213
-0.4244745499190686
223
-0.75
233
0.0
1001
ACAD
1000
DSTYLE
1002
{
1070
     5
1000

1070
    77
1070
     0
1070
   147
1040
0.09
1070
   342
1005
0
1002
}
  0
MTEXT
  5
1872
102
{ACAD_REACTORS
330
1871
102
}
330
1F
100
AcDbEntity
  8
DIM
100
AcDbMText
 10
-663.4353000487031
 20
146.1654183072704
 30
0.0
 40
1.5
 41
0.0
 71
     1
 72
     1
  1
Ring gear width to be as\Pwide as possible without \Pincluding balancing holes\Pin the ring gear piece.
1001
ACAD
1000
MTEXTBEGIN
1070
    73
1070
     1
1070
    44
1040
1.0
1070
    74
1070
     0
1000
MTEXTEND
  0
MTEXT
  5
18BD
330
1F
100
AcDbEntity
  8
DIM
100
AcDbMText
 10
-746.0730684261005
 20
98.77753284117849
 30
0.0
 40
2.0
 41
33.92704258234187
 71
     1
 72
     5
  1
1800 VW flywheel cross-section (1600 similar)
1001
ACAD
1000
MTEXTBEGIN
1070
    73
1070
     1
1070
    44
1040
1.0
1070
    74
1070
     0
1000
MTEXTEND
  0
LEADER
  5
18BF
330
1F
100
AcDbEntity
  8
DIM
100
AcDbLeader
  3
STANDARD
 73
     0
 40
4.5
 41
24.49999999999999
 76
     3
 10
-716.2002215412013
 20
138.0
 30
0.0
 10
-716.2002215412013
 20
145.7033476484343
 30
0.0
 10
-713.6296653273117
 20
145.7033476484343
 30
0.0
340
18C0
213
0.0
223
-0.75
233
0.0
1001
ACAD
1000
DSTYLE
1002
{
1070
     5
1000

1070
    77
1070
     0
1070
   147
1040
0.09
1070
   342
1005
0
1002
}
  0
MTEXT
  5
18C0
102
{ACAD_REACTORS
330
18BF
102
}
330
1F
100
AcDbEntity
  8
DIM
100
AcDbMText
 10
-713.5396653273117
 20
146.4533476484343
 30
0.0
 40
1.5
 41
0.0
 71
     1
 72
     1
  1
Ring gear machined \Pinto flywheel
1001
ACAD
1000
MTEXTBEGIN
1070
    73
1070
     1
1070
    44
1040
1.0
1070
    74
1070
     0
1000
MTEXTEND
  0
LEADER
  5
18C1
330
1F
100
AcDbEntity
  8
DIM
100
AcDbLeader
  3
STANDARD
 73
     0
 40
4.0
 41
19.74999999999998
 76
     3
 10
-716.6004804465862
 20
117.6430155347411
 30
0.0
 10
-724.3073548746495
 20
117.6430155347411
 30
0.0
 10
-724.7028244929561
 20
117.6430155347411
 30
0.0
340
18C2
213
0.0
223
0.75
233
0.0
1001
ACAD
1000
DSTYLE
1002
{
1070
     5
1000

1070
    77
1070
     0
1070
   147
1040
0.09
1070
   342
1005
0
1002
}
  0
MTEXT
  5
18C2
102
{ACAD_REACTORS
330
18C1
102
}
330
1F
100
AcDbEntity
  8
DIM
100
AcDbMText
 10
-724.7928244929561
 20
116.893015534741
 30
0.0
 40
1.5
 41
0.0
 71
     9
 72
     1
  1
Pressure plate\Pbolt hole
1001
ACAD
1000
MTEXTBEGIN
1070
    73
1070
     1
1070
    44
1040
1.0
1070
    74
1070
     0
1000
MTEXTEND
  0
MTEXT
  5
18C3
330
1F
100
AcDbEntity
  8
DIM
100
AcDbMText
 10
-665.860880599208
 20
94.12766605039768
 30
0.0
 40
2.0
 41
77.5121
 71
     1
 72
     5
  1
Machine ring gear off of the VW flywheel as shown. Do not include balance holes in ring gear piece.
1001
ACAD
1000
MTEXTBEGIN
1070
    73
1070
     1
1070
    44
1040
1.0
1070
    74
1070
     0
1000
MTEXTEND
  0
MTEXT
  5
18C4
330
1F
100
AcDbEntity
  8
DIM
100
AcDbMText
 10
-614.0543162622739
 20
109.1458731439344
 30
0.0
 40
2.0
 41
41.52434440790279
 71
     1
 72
     5
  1
Ring gear piece to be used on V6 flywheel
1001
ACAD
1000
MTEXTBEGIN
1070
    73
1070
     1
1070
    44
1040
1.0
1070
    74
1070
     0
1000
MTEXTEND
  0
HATCH
  5
18C6
330
1F
100
AcDbEntity
  8
HATCH
100
AcDbHatch
 10
0.0
 20
0.0
 30
0.0
210
0.0
220
0.0
230
1.0
  2
_USER
 70
     0
 71
     1
 91
        1
 92
        7
 72
     0
 73
     1
 93
        4
 10
-708.9427698516796
 20
61.63895255692759
 10
-708.9427698516796
 20
53.6389525569276
 10
-699.6427698516795
 20
53.6389525569276
 10
-699.6427698516795
 20
61.63895255692756
 97
        4
330
18CD
330
18E3
330
18CC
330
18E1
 75
     0
 76
     0
 52
315.0
 41
1.0
 77
     0
 78
     1
 53
315.0
 43
-565.9427698516797
 44
-76.8610474430724
 45
0.7071067811865479
 46
0.7071067811865474
 79
     0
 47
0.2013931597247246
 98
        1
 10
-703.8261512849499
 20
58.39942249846794
  0
HATCH
  5
18C7
330
1F
100
AcDbEntity
  8
HATCH
100
AcDbHatch
 10
0.0
 20
0.0
 30
0.0
210
0.0
220
0.0
230
1.0
  2
_USER
 70
     0
 71
     1
 91
        1
 92
        7
 72
     1
 73
     1
 93
       24
 10
-701.0442200843877
 20
46.13895255692749
 42
0.0
 10
-704.0442200843878
 20
43.13895255692756
 42
0.0
 10
-705.0442200843877
 20
42.13895255692756
 42
0.0
 10
-725.9427698516796
 20
42.13895255692757
 42
0.0
 10
-725.9427698516796
 20
38.43895255692759
 42
0.0
 10
-706.4427698516797
 20
38.4389525569276
 42
-0.414213562373095
 10
-705.4427698516796
 20
37.4389525569276
 42
0.0
 10
-705.4427698516796
 20
22.9668757086975
 42
0.0
 10
-693.0647780723049
 20
26.36244179255715
 42
0.0
 10
-693.7249000719479
 20
21.41489983767895
 42
0.0
 10
-682.7427698516798
 20
24.48123889143512
 42
0.0
 10
-682.7427698516795
 20
52.6389525569276
 42
0.0
 10
-682.7427698516798
 20
64.88895255692757
 42
0.0
 10
-696.3427698516795
 20
64.88895255692757
 42
0.0
 10
-696.3427698516795
 20
61.6077816131898
 42
-0.4142135623730951
 10
-698.3427698516797
 20
59.60778161318978
 42
0.0
 10
-699.6427698516797
 20
59.60778161318978
 42
0.0
 10
-699.6427698516795
 20
53.6389525569276
 42
0.0
 10
-708.9427698516795
 20
53.6389525569276
 42
0.0
 10
-708.9427698516796
 20
52.6389525569276
 42
0.0
 10
-725.9427698516796
 20
52.6389525569276
 42
0.0
 10
-725.9427698516796
 20
50.13895255692755
 42
0.0
 10
-705.0442200843877
 20
50.13895255692758
 42
0.0
 10
-704.0442200843878
 20
49.13895255692756
 42
0.0
 97
       23
330
18E0
330
18D0
330
18DF
330
18C9
330
18CA
330
18E1
330
18CC
330
18E3
330
18CB
330
18E4
330
18D3
330
18D1
330
18D8
330
18D7
330
18D4
330
18D6
330
18E5
330
18C8
330
18E2
330
18DD
330
18DB
330
18DA
330
18DE
 75
     0
 76
     0
 52
45.0
 41
1.0
 77
     0
 78
     1
 53
45.0
 43
-565.9427698516797
 44
-76.8610474430724
 45
-0.7071067811865475
 46
0.7071067811865476
 79
     0
 47
0.2013931597247246
 98
        1
 10
-692.5404477719528
 20
42.48936176116544
  0
ARC
  5
18C8
102
{ACAD_REACTORS
330
18C7
102
}
330
1F
100
AcDbEntity
  8
0
100
AcDbCircle
 10
-706.4427698516797
 20
37.4389525569276
 30
0.0
 40
1.0
100
AcDbArc
 50
0.0
 51
89.99999999999994
  0
ARC
  5
18C9
102
{ACAD_REACTORS
330
18C7
102
}
330
1F
100
AcDbEntity
  8
0
100
AcDbCircle
 10
-698.3427698516797
 20
61.6077816131898
 30
0.0
 40
2.0
100
AcDbArc
 50
270.0
 51
0.0000000000001527
  0
LINE
  5
18CA
102
{ACAD_REACTORS
330
18C7
102
}
330
1F
100
AcDbEntity
  8
0
100
AcDbLine
 10
-699.6427698516797
 20
59.60778161318978
 30
0.0
 11
-698.3427698516797
 21
59.60778161318978
 31
0.0
  0
LINE
  5
18CB
102
{ACAD_REACTORS
330
18C7
102
}
330
1F
100
AcDbEntity
  8
0
100
AcDbLine
 10
-708.9427698516796
 20
52.6389525569276
 30
0.0
 11
-725.9427698516796
 21
52.6389525569276
 31
0.0
  0
LINE
  5
18CC
102
{ACAD_REACTORS
330
18C7
330
18C6
102
}
330
1F
100
AcDbEntity
  8
0
100
AcDbLine
 10
-699.6427698516797
 20
53.6389525569276
 30
0.0
 11
-708.9427698516796
 21
53.6389525569276
 31
0.0
  0
LINE
  5
18CD
102
{ACAD_REACTORS
330
18C6
102
}
330
1F
100
AcDbEntity
  8
0
100
AcDbLine
 10
-708.9427698516796
 20
61.63895255692759
 30
0.0
 11
-699.6427698516797
 21
61.63895255692759
 31
0.0
  0
LINE
  5
18CE
330
1F
100
AcDbEntity
  8
CENTRE
100
AcDbLine
 10
-697.4341568011099
 20
64.63895255692759
 30
0.0
 11
-711.7428199304504
 21
64.63895255692759
 31
0.0
  0
LINE
  5
18CF
330
1F
100
AcDbEntity
  8
0
100
AcDbLine
 10
-699.6427698516797
 20
67.63614976157929
 30
0.0
 11
-708.9427698516796
 21
67.63614976157929
 31
0.0
  0
LINE
  5
18D0
102
{ACAD_REACTORS
330
18C7
102
}
330
1F
100
AcDbEntity
  8
0
100
AcDbLine
 10
-696.3427698516795
 20
64.88895255692757
 30
0.0
 11
-682.7427698516795
 21
64.88895255692757
 31
0.0
  0
LINE
  5
18D1
102
{ACAD_REACTORS
330
18C7
102
}
330
1F
100
AcDbEntity
  8
0
100
AcDbLine
 10
-705.0442200843877
 20
50.13895255692756
 30
0.0
 11
-704.0442200843878
 21
49.13895255692756
 31
0.0
  0
LINE
  5
18D2
330
1F
100
AcDbEntity
  8
0
100
AcDbLine
 10
-704.0442200843878
 20
49.13895255692756
 30
0.0
 11
-725.9427698516796
 21
49.13895255692756
 31
0.0
  0
LINE
  5
18D3
102
{ACAD_REACTORS
330
18C7
102
}
330
1F
100
AcDbEntity
  8
0
100
AcDbLine
 10
-725.9427698516796
 20
50.13895255692756
 30
0.0
 11
-705.0442200843877
 21
50.13895255692756
 31
0.0
  0
LINE
  5
18D4
102
{ACAD_REACTORS
330
18C7
102
}
330
1F
100
AcDbEntity
  8
0
100
AcDbLine
 10
-704.0442200843878
 20
43.13895255692756
 30
0.0
 11
-705.0442200843877
 21
42.13895255692756
 31
0.0
  0
LINE
  5
18D5
330
1F
100
AcDbEntity
  8
0
100
AcDbLine
 10
-704.0442200843878
 20
43.13895255692756
 30
0.0
 11
-725.9427698516796
 21
43.13895255692756
 31
0.0
  0
LINE
  5
18D6
102
{ACAD_REACTORS
330
18C7
102
}
330
1F
100
AcDbEntity
  8
0
100
AcDbLine
 10
-705.0442200843877
 20
42.13895255692756
 30
0.0
 11
-725.9427698516796
 21
42.13895255692756
 31
0.0
  0
LINE
  5
18D7
102
{ACAD_REACTORS
330
18C7
102
}
330
1F
100
AcDbEntity
  8
0
100
AcDbLine
 10
-701.0442200843877
 20
46.13895255692756
 30
0.0
 11
-704.0442200843878
 21
43.13895255692756
 31
0.0
  0
LINE
  5
18D8
102
{ACAD_REACTORS
330
18C7
102
}
330
1F
100
AcDbEntity
  8
0
100
AcDbLine
 10
-704.0442200843878
 20
49.13895255692756
 30
0.0
 11
-701.0442200843877
 21
46.13895255692756
 31
0.0
  0
LINE
  5
18D9
330
1F
100
AcDbEntity
  8
CENTRE
100
AcDbLine
 10
-696.1508303581385
 20
46.13895255692756
 30
0.0
 11
-732.7072179547504
 21
46.1389525569276
 31
0.0
  0
LINE
  5
18DA
102
{ACAD_REACTORS
330
18C7
102
}
330
1F
100
AcDbEntity
  8
0
100
AcDbLine
 10
-693.7249000719479
 20
21.41489983767891
 30
0.0
 11
-677.4813217544692
 21
25.95029666585602
 31
0.0
  0
LINE
  5
18DB
102
{ACAD_REACTORS
330
18C7
102
}
330
1F
100
AcDbEntity
  8
0
100
AcDbLine
 10
-693.0647780723046
 20
26.36244179255717
 30
0.0
 11
-693.7249000719479
 21
21.41489983767891
 31
0.0
  0
LINE
  5
18DC
330
1F
100
AcDbEntity
  8
0
100
AcDbLine
 10
-693.0647780723046
 20
26.36244179255717
 30
0.0
 11
-693.0647780723046
 21
26.36244179255717
 31
0.0
  0
LINE
  5
18DD
102
{ACAD_REACTORS
330
18C7
102
}
330
1F
100
AcDbEntity
  8
0
100
AcDbLine
 10
-709.8978867404539
 20
21.74473531009434
 30
0.0
 11
-693.0647780723046
 21
26.36244179255717
 31
0.0
  0
LINE
  5
18DE
102
{ACAD_REACTORS
330
18C7
102
}
330
1F
100
AcDbEntity
  8
0
100
AcDbLine
 10
-682.7427698516795
 20
52.6389525569276
 30
0.0
 11
-682.7427698516795
 21
24.48123889143516
 31
0.0
  0
LINE
  5
18DF
102
{ACAD_REACTORS
330
18C7
102
}
330
1F
100
AcDbEntity
  8
0
100
AcDbLine
 10
-696.3427698516795
 20
61.6077816131898
 30
0.0
 11
-696.3427698516795
 21
64.88895255692757
 31
0.0
  0
LINE
  5
18E0
102
{ACAD_REACTORS
330
18C7
102
}
330
1F
100
AcDbEntity
  8
0
100
AcDbLine
 10
-682.7427698516795
 20
52.6389525569276
 30
0.0
 11
-682.7427698516795
 21
64.88895255692757
 31
0.0
  0
LINE
  5
18E1
102
{ACAD_REACTORS
330
18C7
330
18C6
102
}
330
1F
100
AcDbEntity
  8
0
100
AcDbLine
 10
-699.6427698516797
 20
53.6389525569276
 30
0.0
 11
-699.6427698516797
 21
67.63614976157929
 31
0.0
  0
LINE
  5
18E2
102
{ACAD_REACTORS
330
18C7
102
}
330
1F
100
AcDbEntity
  8
0
100
AcDbLine
 10
-705.4427698516796
 20
22.9668757086975
 30
0.0
 11
-705.4427698516796
 21
37.4389525569276
 31
0.0
  0
LINE
  5
18E3
102
{ACAD_REACTORS
330
18C7
330
18C6
102
}
330
1F
100
AcDbEntity
  8
0
100
AcDbLine
 10
-708.9427698516796
 20
52.63895255692759
 30
0.0
 11
-708.9427698516796
 21
67.63614976157929
 31
0.0
  0
LINE
  5
18E4
102
{ACAD_REACTORS
330
18C7
102
}
330
1F
100
AcDbEntity
  8
0
100
AcDbLine
 10
-725.9427698516796
 20
38.43895255692763
 30
0.0
 11
-725.9427698516796
 21
52.6389525569276
 31
0.0
  0
LINE
  5
18E5
102
{ACAD_REACTORS
330
18C7
102
}
330
1F
100
AcDbEntity
  8
0
100
AcDbLine
 10
-706.4427698516797
 20
38.4389525569276
 30
0.0
 11
-725.9427698516796
 21
38.4389525569276
 31
0.0
  0
LINE
  5
18E7
102
{ACAD_REACTORS
330
1A1E
102
}
330
1F
100
AcDbEntity
  8
0
100
AcDbLine
 10
-612.8720283754396
 20
38.43895255692763
 30
0.0
 11
-612.8720283754396
 21
52.6389525569276
 31
0.0
  0
LINE
  5
18E9
102
{ACAD_REACTORS
330
1A1E
102
}
330
1F
100
AcDbEntity
  8
0
100
AcDbLine
 10
-587.9734786081477
 20
46.13895255692756
 30
0.0
 11
-590.9734786081477
 21
43.13895255692756
 31
0.0
  0
LINE
  5
18EA
102
{ACAD_REACTORS
330
1A1E
102
}
330
1F
100
AcDbEntity
  8
0
100
AcDbLine
 10
-596.8271452642137
 20
21.74473531009434
 30
0.0
 11
-579.9940365960646
 21
26.36244179255717
 31
0.0
  0
LINE
  5
18EB
102
{ACAD_REACTORS
330
1A1E
102
}
330
1F
100
AcDbEntity
  8
0
100
AcDbLine
 10
-592.3720283754396
 20
22.9668757086975
 30
0.0
 11
-592.3720283754396
 21
37.4389525569276
 31
0.0
  0
LINE
  5
18EC
102
{ACAD_REACTORS
330
1A1E
102
}
330
1F
100
AcDbEntity
  8
0
100
AcDbLine
 10
-593.3720283754396
 20
38.4389525569276
 30
0.0
 11
-612.8720283754396
 21
38.4389525569276
 31
0.0
  0
LINE
  5
18ED
102
{ACAD_REACTORS
330
1A1E
102
}
330
1F
100
AcDbEntity
  8
0
100
AcDbLine
 10
-591.9734786081477
 20
42.13895255692756
 30
0.0
 11
-612.8720283754396
 21
42.13895255692756
 31
0.0
  0
LINE
  5
18EE
330
1F
100
AcDbEntity
  8
0
100
AcDbLine
 10
-590.9734786081477
 20
43.13895255692756
 30
0.0
 11
-612.8720283754396
 21
43.13895255692756
 31
0.0
  0
ARC
  5
18EF
102
{ACAD_REACTORS
330
1A1E
102
}
330
1F
100
AcDbEntity
  8
0
100
AcDbCircle
 10
-593.3720283754396
 20
37.4389525569276
 30
0.0
 40
1.0
100
AcDbArc
 50
0.0
 51
89.99999999999994
  0
LINE
  5
18F0
102
{ACAD_REACTORS
330
1A1E
102
}
330
1F
100
AcDbEntity
  8
0
100
AcDbLine
 10
-590.9734786081477
 20
43.13895255692756
 30
0.0
 11
-591.9734786081477
 21
42.13895255692756
 31
0.0
  0
LINE
  5
18F1
102
{ACAD_REACTORS
330
1A1E
102
}
330
1F
100
AcDbEntity
  8
0
100
AcDbLine
 10
-580.6541585957078
 20
21.41489983767891
 30
0.0
 11
-564.4105802782291
 21
25.95029666585602
 31
0.0
  0
LINE
  5
18F2
102
{ACAD_REACTORS
330
1A1E
102
}
330
1F
100
AcDbEntity
  8
0
100
AcDbLine
 10
-579.9940365960646
 20
26.36244179255717
 30
0.0
 11
-580.6541585957078
 21
21.41489983767891
 31
0.0
  0
LINE
  5
18F3
330
1F
100
AcDbEntity
  8
0
100
AcDbLine
 10
-579.9940365960646
 20
26.36244179255717
 30
0.0
 11
-579.9940365960646
 21
26.36244179255717
 31
0.0
  0
LINE
  5
18F4
330
1F
100
AcDbEntity
  8
CENTRE
100
AcDbLine
 10
-583.0800888818982
 20
46.13895255692756
 30
0.0
 11
-619.6364764785102
 21
46.1389525569276
 31
0.0
  0
LINE
  5
18F5
102
{ACAD_REACTORS
330
1A1E
102
}
330
1F
100
AcDbEntity
  8
0
100
AcDbLine
 10
-590.9734786081477
 20
49.13895255692756
 30
0.0
 11
-587.9734786081477
 21
46.13895255692756
 31
0.0
  0
LINE
  5
18F6
102
{ACAD_REACTORS
330
1A1E
102
}
330
1F
100
AcDbEntity
  8
0
100
AcDbLine
 10
-586.5720283754395
 20
53.6389525569276
 30
0.0
 11
-595.8720283754395
 21
53.6389525569276
 31
0.0
  0
LINE
  5
18F7
102
{ACAD_REACTORS
330
1A1E
102
}
330
1F
100
AcDbEntity
  8
0
100
AcDbLine
 10
-612.8720283754396
 20
50.13895255692756
 30
0.0
 11
-591.9734786081477
 21
50.13895255692756
 31
0.0
  0
LINE
  5
18F8
330
1F
100
AcDbEntity
  8
0
100
AcDbLine
 10
-590.9734786081477
 20
49.13895255692756
 30
0.0
 11
-612.8720283754396
 21
49.13895255692756
 31
0.0
  0
LINE
  5
18F9
102
{ACAD_REACTORS
330
1A1E
102
}
330
1F
100
AcDbEntity
  8
0
100
AcDbLine
 10
-595.8720283754395
 20
52.6389525569276
 30
0.0
 11
-604.8720283754396
 21
52.63895255692759
 31
0.0
  0
LINE
  5
18FA
102
{ACAD_REACTORS
330
1A1E
102
}
330
1F
100
AcDbEntity
  8
0
100
AcDbLine
 10
-591.9734786081477
 20
50.13895255692756
 30
0.0
 11
-590.9734786081477
 21
49.13895255692756
 31
0.0
  0
LINE
  5
18FB
102
{ACAD_REACTORS
330
1A1E
102
}
330
1F
100
AcDbEntity
  8
0
100
AcDbLine
 10
-595.8720283754395
 20
52.63895255692759
 30
0.0
 11
-595.8720283754395
 21
53.63895255692759
 31
0.0
  0
LINE
  5
18FC
102
{ACAD_REACTORS
330
1A1E
102
}
330
1F
100
AcDbEntity
  8
0
100
AcDbLine
 10
-586.5720283754395
 20
53.6389525569276
 30
0.0
 11
-586.5720283754395
 21
59.60778161318978
 31
0.0
  0
LINE
  5
18FF
102
{ACAD_REACTORS
330
1A1E
102
}
330
1F
100
AcDbEntity
  8
0
100
AcDbLine
 10
-586.5720283754395
 20
59.60778161318978
 30
0.0
 11
-585.2720283754393
 21
59.60778161318978
 31
0.0
  0
LINE
  5
1903
330
1F
100
AcDbEntity
  8
0
100
AcDbLine
 10
-606.8720283754396
 20
61.13895255692759
 30
0.0
 11
-606.8720283754396
 21
57.18895255692761
 31
0.0
  0
LINE
  5
1904
102
{ACAD_REACTORS
330
1958
102
}
330
1F
100
AcDbEntity
  8
0
100
AcDbLine
 10
-616.8720283754396
 20
61.13895255692759
 30
0.0
 11
-616.8720283754396
 21
53.13895255692759
 31
0.0
  0
LINE
  5
1906
102
{ACAD_REACTORS
330
1958
330
1A1E
102
}
330
1F
100
AcDbEntity
  8
0
100
AcDbLine
 10
-604.8720283754396
 20
50.63895255692759
 30
0.0
 11
-604.8720283754396
 21
56.38895255692759
 31
0.0
  0
LINE
  5
1907
102
{ACAD_REACTORS
330
1958
102
}
330
1F
100
AcDbEntity
  8
0
100
AcDbLine
 10
-612.8720283754396
 20
53.13895255692759
 30
0.0
 11
-612.8720283754396
 21
50.63895255692759
 31
0.0
  0
LINE
  5
1908
102
{ACAD_REACTORS
330
1958
330
1A1E
102
}
330
1F
100
AcDbEntity
  8
0
100
AcDbLine
 10
-612.8720283754396
 20
50.63895255692759
 30
0.0
 11
-604.8720283754396
 21
50.63895255692759
 31
0.0
  0
LINE
  5
1909
102
{ACAD_REACTORS
330
1958
102
}
330
1F
100
AcDbEntity
  8
0
100
AcDbLine
 10
-606.8720283754396
 20
57.13895255692751
 30
0.0
 11
-616.8720283754396
 21
57.13895255692751
 31
0.0
  0
LINE
  5
190A
102
{ACAD_REACTORS
330
1958
102
}
330
1F
100
AcDbEntity
  8
0
100
AcDbLine
 10
-616.8720283754396
 20
53.13895255692759
 30
0.0
 11
-612.8720283754396
 21
53.13895255692759
 31
0.0
  0
ARC
  5
190B
102
{ACAD_REACTORS
330
1958
102
}
330
1F
100
AcDbEntity
  8
0
100
AcDbCircle
 10
-606.0720283754395
 20
57.18895255692761
 30
0.0
 40
0.8
100
AcDbArc
 50
180.0
 51
270.0
  0
LINE
  5
190C
102
{ACAD_REACTORS
330
1958
102
}
330
1F
100
AcDbEntity
  8
0
100
AcDbLine
 10
-606.0720283754395
 20
56.38895255692759
 30
0.0
 11
-604.8720283754396
 21
56.38895255692759
 31
0.0
  0
LINE
  5
190D
330
1F
100
AcDbEntity
  8
CENTRE
100
AcDbLine
 10
-601.0042500852719
 20
59.11283224860452
 30
0.0
 11
-622.6237515115117
 21
59.11283224860452
 31
0.0
  0
LINE
  5
190E
330
1F
100
AcDbEntity
  8
0
100
AcDbLine
 10
-616.8720283754396
 20
61.13895255692759
 30
0.0
 11
-606.8720283754396
 21
61.13895255692759
 31
0.0
  0
LINE
  5
1912
102
{ACAD_REACTORS
330
1A1E
102
}
330
1F
100
AcDbEntity
  8
0
100
AcDbLine
 10
-671.6880759765301
 20
50.63895255692759
 30
0.0
 11
-663.6880759765304
 21
50.63895255692759
 31
0.0
  0
LINE
  5
1917
102
{ACAD_REACTORS
330
1A1E
102
}
330
1F
100
AcDbEntity
  8
0
100
AcDbLine
 10
-663.6880759765304
 20
50.63895255692759
 30
0.0
 11
-663.6880759765304
 21
52.6389525569276
 31
0.0
  0
HATCH
  5
1958
330
1F
100
AcDbEntity
  8
HATCH
100
AcDbHatch
 10
0.0
 20
0.0
 30
0.0
210
0.0
220
0.0
230
1.0
  2
_USER
 70
     0
 71
     1
 91
        1
 92
        7
 72
     1
 73
     1
 93
        8
 10
-616.8720283754396
 20
57.13895255692751
 42
0.0
 10
-616.8720283754396
 20
53.13895255692759
 42
0.0
 10
-612.8720283754396
 20
53.13895255692759
 42
0.0
 10
-612.8720283754396
 20
50.63895255692759
 42
0.0
 10
-604.8720283754396
 20
50.63895255692759
 42
0.0
 10
-604.8720283754398
 20
56.38895255692759
 42
0.0
 10
-606.0720283754395
 20
56.38895255692759
 42
-0.3960121918356836
 10
-606.8704643465732
 20
57.13895255692751
 42
0.0
 97
        8
330
190C
330
190B
330
1909
330
1904
330
190A
330
1907
330
1908
330
1906
 75
     0
 76
     0
 52
135.0
 41
1.0
 77
     0
 78
     1
 53
135.0
 43
-474.6317645443244
 44
-76.8610474430724
 45
-0.7071067811865476
 46
-0.7071067811865475
 79
     0
 47
0.1075326667093907
 98
        1
 10
-610.1856330900227
 20
54.501951688111
  0
MTEXT
  5
1963
330
1F
100
AcDbEntity
  8
DIM
100
AcDbMText
 10
-745.016862651024
 20
30.30983870714979
 30
0.0
 40
2.0
 41
27.0897
 71
     1
 72
     5
  1
KLZE V6 flywheel cross-section
1001
ACAD
1000
MTEXTBEGIN
1070
    73
1070
     1
1070
    44
1040
1.0
1070
    74
1070
     0
1000
MTEXTEND
  0
MTEXT
  5
1964
102
{ACAD_REACTORS
330
1966
102
}
330
1F
100
AcDbEntity
  8
DIM
100
AcDbMText
 10
-731.0405750408597
 20
60.93077073783593
 30
0.0
 40
1.5
 41
0.0
 71
     4
 72
     1
  1
Pressure plate\Pbolt hole
1001
ACAD
1000
MTEXTBEGIN
1070
    73
1070
     1
1070
    44
1040
1.0
1070
    74
1070
     0
1000
MTEXTEND
  0
MTEXT
  5
1965
102
{ACAD_REACTORS
330
1967
102
}
330
1F
100
AcDbEntity
  8
DIM
100
AcDbMText
 10
-702.6961926919657
 20
76.80708572590519
 30
0.0
 40
1.5
 41
0.0
 71
     1
 72
     1
  1
V6 ring gear \Pis pressed on
1001
ACAD
1000
MTEXTBEGIN
1070
    73
1070
     1
1070
    44
1040
1.0
1070
    74
1070
     0
1000
MTEXTEND
  0
LEADER
  5
1966
330
1F
100
AcDbEntity
  8
DIM
100
AcDbLeader
  3
STANDARD
 73
     0
 74
     0
 75
     1
 40
4.0
 41
19.74999999999998
 76
     4
 10
-727.1361244067967
 20
48.28387921609818
 30
0.0
 10
-732.5295157157338
 20
48.28387921609818
 30
0.0
 10
-732.6305750408599
 20
60.93077073783593
 30
0.0
 10
-731.13057504086
 20
60.93077073783593
 30
0.0
340
1964
1001
ACAD
1000
DSTYLE
1002
{
1070
     5
1000

1070
    77
1070
     0
1070
   147
1040
0.09
1070
   342
1005
0
1002
}
  0
LEADER
  5
1967
330
1F
100
AcDbEntity
  8
DIM
100
AcDbLeader
  3
STANDARD
 73
     0
 40
4.5
 41
18.0
 76
     3
 10
-705.3567489058555
 20
68.35373807747081
 30
0.0
 10
-705.3567489058555
 20
76.05708572590519
 30
0.0
 10
-702.7861926919658
 20
76.05708572590519
 30
0.0
340
1965
213
0.0
223
-0.75
233
0.0
1001
ACAD
1000
DSTYLE
1002
{
1070
     5
1000

1070
    77
1070
     0
1070
   147
1040
0.09
1070
   342
1005
0
1002
}
  0
LEADER
  5
1971
330
1F
100
AcDbEntity
  8
DIM
100
AcDbLeader
  3
STANDARD
 73
     0
 40
4.5
 41
13.49999999999999
 76
     3
 10
-652.8179329479646
 20
53.6389525569276
 30
0.0
 10
-652.8179329479646
 20
67.14861091085097
 30
0.0
 10
-650.2473767340752
 20
67.14861091085097
 30
0.0
340
1972
213
0.0
223
-0.75
233
0.0
1001
ACAD
1000
DSTYLE
1002
{
1070
     5
1000

1070
    77
1070
     0
1070
   147
1040
0.09
1070
   342
1005
0
1002
}
  0
MTEXT
  5
1972
102
{ACAD_REACTORS
330
1971
102
}
330
1F
100
AcDbEntity
  8
DIM
100
AcDbMText
 10
-650.1573767340752
 20
67.89861091085097
 30
0.0
 40
1.5
 41
0.0
 71
     1
 72
     1
  1
Remove V6 \Pring gear
1001
ACAD
1000
MTEXTBEGIN
1070
    73
1070
     1
1070
    44
1040
1.0
1070
    74
1070
     0
1000
MTEXTEND
  0
LEADER
  5
197A
330
1F
100
AcDbEntity
  8
DIM
100
AcDbLeader
  3
STANDARD
 73
     0
 40
7.0
 41
13.0
 76
     3
 10
-670.7366711359002
 20
50.88895174879059
 30
0.0
 10
-670.7366711359002
 20
70.81720943993857
 30
0.0
 10
-668.1661149220103
 20
70.81720943993857
 30
0.0
340
197B
213
0.0
223
-0.75
233
0.0
1001
ACAD
1000
DSTYLE
1002
{
1070
     5
1000

1070
    77
1070
     0
1070
   147
1040
0.09
1070
   342
1005
0
1002
}
  0
MTEXT
  5
197B
102
{ACAD_REACTORS
330
197A
102
}
330
1F
100
AcDbEntity
  8
DIM
100
AcDbMText
 10
-668.0761149220103
 20
71.56720943993858
 30
0.0
 40
1.5
 41
0.0
 71
     1
 72
     1
  1
Machine \Pto fit VW \Pring gear
1001
ACAD
1000
MTEXTBEGIN
1070
    73
1070
     1
1070
    44
1040
1.0
1070
    74
1070
     0
1000
MTEXTEND
  0
LEADER
  5
1983
330
1F
100
AcDbEntity
  8
DIM
100
AcDbLeader
  3
STANDARD
 73
     0
 40
12.0
 41
38.25000000000002
 76
     3
 10
-611.3353764079817
 20
61.13895308968817
 30
0.0
 10
-606.6220291835766
 20
80.61072569085366
 30
0.0
 10
-604.0514729696869
 20
80.61072569085366
 30
0.0
340
1984
213
0.0
223
-0.75
233
0.0
1001
ACAD
1000
DSTYLE
1002
{
1070
     5
1000

1070
    77
1070
     0
1070
   147
1040
0.09
1070
   342
1005
0
1002
}
  0
MTEXT
  5
1984
102
{ACAD_REACTORS
330
1983
102
}
330
1F
100
AcDbEntity
  8
DIM
100
AcDbMText
 10
-603.9614729696867
 20
81.36072569085365
 30
0.0
 40
1.5
 41
0.0
 71
     1
 72
     1
  1
Press VW ring gear onto \PV6 flywheel. 4mm overhang \Pensures full engagement \Pof starter motor when 20mm \Padaptor plate is used
1001
ACAD
1000
MTEXTBEGIN
1070
    73
1070
     1
1070
    44
1040
1.0
1070
    74
1070
     0
1000
MTEXTEND
  0
LEADER
  5
198C
330
1F
100
AcDbEntity
  8
DIM
100
AcDbLeader
  3
STANDARD
 73
     0
 40
4.0
 41
6.0
 76
     3
 10
-603.6428428111882
 20
53.32652450589089
 30
0.0
 10
-599.5692158081132
 20
60.83636326696558
 30
0.0
 10
-596.9986595942239
 20
60.83636326696558
 30
0.0
340
198D
213
0.0
223
-0.75
233
0.0
1001
ACAD
1000
DSTYLE
1002
{
1070
     5
1000

1070
    77
1070
     0
1070
   147
1040
0.09
1070
   342
1005
0
1002
}
  0
MTEXT
  5
198D
102
{ACAD_REACTORS
330
198C
102
}
330
1F
100
AcDbEntity
  8
DIM
100
AcDbMText
 10
-596.9086595942237
 20
61.58636326696558
 30
0.0
 40
1.5
 41
0.0
 71
     1
 72
     1
  1
Fillet \Pweld
1001
ACAD
1000
MTEXTBEGIN
1070
    73
1070
     1
1070
    44
1040
1.0
1070
    74
1070
     0
1000
MTEXTEND
  0
LINE
  5
1992
330
1F
100
AcDbEntity
  8
DIM
100
AcDbLine
 10
-746.6807550434658
 20
83.22995783182205
 30
0.0
 11
-548.7769709306661
 21
83.22995783182205
 31
0.0
  0
MTEXT
  5
19DF
102
{ACAD_REACTORS
330
19E0
102
}
330
1F
100
AcDbEntity
  8
DIM
100
AcDbMText
 10
-640.5702782180502
 20
77.68767037119579
 30
0.0
 40
1.5
 41
0.0
 71
     6
 72
     1
  1
Machine to VW\Pring gear OD
1001
ACAD
1000
MTEXTBEGIN
1070
    73
1070
     1
1070
    44
1040
1.0
1070
    74
1070
     0
1000
MTEXTEND
  0
LEADER
  5
19E0
330
1F
100
AcDbEntity
  8
DIM
100
AcDbLeader
  3
STANDARD
 73
     0
 40
4.5
 41
19.0
 76
     3
 10
-631.9862655808555
 20
61.55514508845392
 30
0.0
 10
-631.9862655808555
 20
78.10051321219146
 30
0.0
 10
-639.6810274131667
 20
78.10386302204432
 30
0.0
340
19DF
213
23.45309066322636
223
-3.039059579667024
233
0.0
1001
ACAD
1000
DSTYLE
1002
{
1070
     5
1000

1070
    77
1070
     0
1070
   147
1040
0.09
1070
   342
1005
0
1002
}
  0
LINE
  5
19E3
102
{ACAD_REACTORS
330
1A1E
102
}
330
1F
100
AcDbEntity
  8
0
100
AcDbLine
 10
-569.6720283754395
 20
61.13895255692757
 30
0.0
 11
-569.6720283754395
 21
24.48123889143516
 31
0.0
  0
LINE
  5
19E4
102
{ACAD_REACTORS
330
1A1E
102
}
330
1F
100
AcDbEntity
  8
0
100
AcDbLine
 10
-583.3277549080476
 20
61.13895255692757
 30
0.0
 11
-569.6720283754395
 21
61.13895255692757
 31
0.0
  0
ARC
  5
19E5
102
{ACAD_REACTORS
330
1A1E
102
}
330
1F
100
AcDbEntity
  8
0
100
AcDbCircle
 10
-585.2720283754396
 20
61.6077816131898
 30
0.0
 40
2.0
100
AcDbArc
 50
270.0
 51
346.4428862658719
  0
HATCH
  5
1A1E
330
1F
100
AcDbEntity
  8
HATCH
100
AcDbHatch
 10
0.0
 20
0.0
 30
0.0
210
0.0
220
0.0
230
1.0
  2
ANSI31
 70
     0
 71
     1
 91
        2
 92
        7
 72
     1
 73
     1
 93
       24
 10
-628.4880759765301
 20
61.13895255692757
 42
0.0
 10
-642.1438025091382
 20
61.13895255692757
 42
-0.3464906260131202
 10
-644.0880759765303
 20
59.60778161318978
 42
0.0
 10
-645.3880759765301
 20
59.60778161318978
 42
0.0
 10
-645.3880759765302
 20
53.6389525569276
 42
0.0
 10
-654.6880759765302
 20
53.6389525569276
 42
0.0
 10
-654.6880759765302
 20
52.6389525569276
 42
0.0
 10
-663.6880759765304
 20
52.63895255692759
 42
0.0
 10
-663.6880759765304
 20
50.63895255692759
 42
0.0
 10
-671.6880759765301
 20
50.63895255692759
 42
0.0
 10
-671.6880759765301
 20
50.13895255692756
 42
0.0
 10
-650.7895262092387
 20
50.13895255692756
 42
0.0
 10
-649.7895262092383
 20
49.13895255692756
 42
0.0
 10
-646.7895262092387
 20
46.1389525569275
 42
0.0
 10
-649.7895262092383
 20
43.13895255692756
 42
0.0
 10
-650.7895262092387
 20
42.13895255692756
 42
0.0
 10
-671.6880759765301
 20
42.13895255692756
 42
0.0
 10
-671.6880759765301
 20
38.43895255692759
 42
0.0
 10
-652.1880759765304
 20
38.4389525569276
 42
-0.4142135623730949
 10
-651.1880759765304
 20
37.4389525569276
 42
0.0
 10
-651.1880759765305
 20
22.96687570869746
 42
0.0
 10
-638.8100841971552
 20
26.36244179255719
 42
0.0
 10
-639.4702061967985
 20
21.41489983767889
 42
0.0
 10
-628.4880759765302
 20
24.48123889143515
 42
0.0
 97
       23
330
17CD
330
17D9
330
17D4
330
17B8
330
17D2
330
17B6
330
17D3
330
1917
330
1912
330
17B5
330
17C8
330
17CA
330
17C3
330
17C4
330
17C7
330
17C5
330
17B3
330
17DA
330
17B7
330
17BE
330
17C0
330
17C1
330
17BD
 92
        7
 72
     1
 73
     1
 93
       24
 10
-569.6720283754395
 20
61.13895255692757
 42
0.0
 10
-583.3277549080476
 20
61.13895255692757
 42
-0.3464906260131202
 10
-585.2720283754396
 20
59.60778161318978
 42
0.0
 10
-586.5720283754395
 20
59.60778161318978
 42
0.0
 10
-586.5720283754395
 20
53.6389525569276
 42
0.0
 10
-595.8720283754395
 20
53.6389525569276
 42
0.0
 10
-595.8720283754395
 20
52.6389525569276
 42
0.0
 10
-604.8720283754396
 20
52.63895255692759
 42
0.0
 10
-604.8720283754396
 20
50.63895255692759
 42
0.0
 10
-612.8720283754396
 20
50.63895255692759
 42
0.0
 10
-612.8720283754397
 20
50.13895255692755
 42
0.0
 10
-591.9734786081476
 20
50.13895255692756
 42
0.0
 10
-590.9734786081477
 20
49.13895255692756
 42
0.0
 10
-587.9734786081477
 20
46.1389525569276
 42
0.0
 10
-590.9734786081477
 20
43.13895255692756
 42
0.0
 10
-591.9734786081477
 20
42.13895255692756
 42
0.0
 10
-612.8720283754396
 20
42.13895255692756
 42
0.0
 10
-612.8720283754396
 20
38.43895255692759
 42
0.0
 10
-593.3720283754396
 20
38.4389525569276
 42
-0.4142135623730949
 10
-592.3720283754396
 20
37.4389525569276
 42
0.0
 10
-592.3720283754398
 20
22.96687570869746
 42
0.0
 10
-579.9940365960646
 20
26.36244179255716
 42
0.0
 10
-580.6541585957078
 20
21.41489983767888
 42
0.0
 10
-569.6720283754395
 20
24.48123889143516
 42
0.0
 97
       23
330
19E4
330
19E5
330
18FF
330
18FC
330
18F6
330
18FB
330
18F9
330
1906
330
1908
330
18E7
330
18F7
330
18FA
330
18F5
330
18E9
330
18F0
330
18ED
330
18EC
330
18EF
330
18EB
330
18EA
330
18F2
330
18F1
330
19E3
 75
     0
 76
     1
 52
0.0
 41
0.3
 77
     0
 78
     1
 53
45.0
 43
0.0
 44
0.0
 45
-0.6735192090801864
 46
0.6735192090801866
 79
     0
 47
0.2080963103904666
 98
        2
 10
-638.2233982281348
 20
35.23267337883186
 10
-575.7535721062586
 20
33.77599910086195
  0
VIEWPORT
  5
187A
330
23
100
AcDbEntity
 67
     1
  8
0
100
AcDbViewport
 10
5.249999639556162
 20
3.999999883606676
 30
0.0
 40
15.1543429260155
 41
8.992999745766947
 68
     1
 69
     1
1001
ACAD
1000
MVIEW
1002
{
1070
    16
1010
0.0
1020
0.0
1030
0.0
1010
0.0
1020
0.0
1030
1.0
1040
0.0
1040
8.992999745766947
1040
5.249999639556162
1040
3.999999883606676
1040
50.0
1040
0.0
1040
0.0
1070
     0
1070
   100
1070
     1
1070
     1
1070
     0
1070
     0
1070
     0
1070
     0
1040
0.0
1040
0.0
1040
0.0
1040
10.0
1040
10.0
1040
10.0
1040
10.0
1070
     0
1002
{
1002
}
1002
}
  0
ENDSEC
  0
SECTION
  2
OBJECTS
  0
DICTIONARY
  5
C
330
0
100
AcDbDictionary
  3
ACAD_GROUP
350
D
  3
ACAD_LAYOUT
350
1A
  3
ACAD_MLINESTYLE
350
17
  3
ACAD_PLOTSETTINGS
350
19
  3
ACAD_PLOTSTYLENAME
350
E
  3
ACADDIM
350
18BE
  3
ACDBHEADERROUNDTRIPXREC
350
1A94
  3
ACDBVARIABLEDICTIONARY
350
1696
  3
ASE_INDEX_DICTIONARY
350
CD1
  3
DWGPROPS
350
1996
  0
DICTIONARY
  5
19BA
330
1F
100
AcDbDictionary
280
     1
  3
ACAD_INDEX
360
1A5A
  3
ACAD_LAYOUTSELFREF
360
1AB4
  0
DICTIONARY
  5
19BC
330
23
100
AcDbDictionary
280
     1
  3
ACAD_LAYOUTSELFREF
360
1AB5
  0
DICTIONARY
  5
D
102
{ACAD_REACTORS
330
C
102
}
330
C
100
AcDbDictionary
  0
DICTIONARY
  5
1A
102
{ACAD_REACTORS
330
C
102
}
330
C
100
AcDbDictionary
  0
DICTIONARY
  5
17
102
{ACAD_REACTORS
330
C
102
}
330
C
100
AcDbDictionary
  3
STANDARD
350
18
  0
DICTIONARY
  5
19
102
{ACAD_REACTORS
330
C
102
}
330
C
100
AcDbDictionary
  0
ACDBDICTIONARYWDFLT
  5
E
102
{ACAD_REACTORS
330
C
102
}
330
C
100
AcDbDictionary
281
     1
  3
Normal
350
F
100
AcDbDictionaryWithDefault
340
F
  0
XRECORD
  5
18BE
102
{ACAD_REACTORS
330
C
102
}
330
C
100
AcDbXrecord
 90
   990106
  3

 60
     0
 61
     0
 62
     1
 63
     3
 64
     0
 65
     0
 66
     0
 67
     3
 68
     1
 69
     0
 70
     0
 71
     0
 72
     0
 40
0.0
170
     0
340
18C2
  0
DICTIONARY
  5
1A94
102
{ACAD_REACTORS
330
C
102
}
330
C
100
AcDbDictionary
  3
CEPSNTYPE
350
1A9E
  3
FINGERPRINTGUID
350
1A9F
  3
HYPERLINKBASE
350
1A97
  3
INSUNITS
350
1A9D
  3
LAYOUTDICT
350
1A99
  3
LWETCUNION
350
1A9C
  3
PLOTSETDICT
350
1A9A
  3
PLOTSTYLNAMDICT
350
1A9B
  3
PSVPSCALE
350
1AA1
  3
PUCSBASE
350
1AA4
  3
PUCSORGBACK
350
1AAA
  3
PUCSORGBOTTOM
350
1AA6
  3
PUCSORGFRONT
350
1AA9
  3
PUCSORGLEFT
350
1AA7
  3
PUCSORGRIGHT
350
1AA8
  3
PUCSORGTOP
350
1AA5
  3
PUCSORTHOREF
350
1AA2
  3
PUCSORTHOVIEW
350
1AA3
  3
STYLESHEET
350
1A98
  3
TSTACKALIGN
350
1A95
  3
TSTACKSIZE
350
1A96
  3
UCSBASE
350
1AAD
  3
UCSORGBACK
350
1AB3
  3
UCSORGBOTTOM
350
1AAF
  3
UCSORGFRONT
350
1AB2
  3
UCSORGLEFT
350
1AB0
  3
UCSORGRIGHT
350
1AB1
  3
UCSORGTOP
350
1AAE
  3
UCSORTHOREF
350
1AAB
  3
UCSORTHOVIEW
350
1AAC
  3
VERSIONGUID
350
1AA0
  0
DICTIONARY
  5
1696
102
{ACAD_REACTORS
330
C
102
}
330
C
100
AcDbDictionary
  3
DIMASSOC
350
1A2A
  3
INDEXCTL
350
1A29
  3
SORTENTS
350
1697
  0
DICTIONARY
  5
CD1
102
{ACAD_REACTORS
330
C
102
}
330
C
100
AcDbDictionary
  3
ASEBLOCKHIERARCHYINDEXRECORD
350
CD3
1001
DCO15
1040
1446284805.41
  0
XRECORD
  5
1996
102
{ACAD_REACTORS
330
C
102
}
330
C
100
AcDbXrecord
  1
DWGPROPS COOKIE
  2

  3

  4

  6

  7

  8
tayl103325
  9

300
=
301
=
302
=
303
=
304
=
305
=
306
=
307
=
308
=
309
=
 40
0.3203152199074074
 41
2452534.628513808
 42
2452685.660516308
  1

 90
        0
  0
DICTIONARY
  5
1A5A
102
{ACAD_REACTORS
330
19BA
102
}
330
19BA
100
AcDbDictionary
  3
*A1
350
1A5B
  3
*A2
350
1A5C
  0
XRECORD
  5
1AB4
102
{ACAD_REACTORS
330
19BA
102
}
330
19BA
100
AcDbXrecord
340
1F
  0
XRECORD
  5
1AB5
102
{ACAD_REACTORS
330
19BC
102
}
330
19BC
100
AcDbXrecord
340
23
  0
MLINESTYLE
  5
18
102
{ACAD_REACTORS
330
17
102
}
330
17
100
AcDbMlineStyle
  2
STANDARD
 70
     0
  3

 62
   256
 51
90.0
 52
90.0
 71
     2
 49
0.5
 62
   256
  6
BYLAYER
 49
-0.5
 62
   256
  6
BYLAYER
  0
ACDBPLACEHOLDER
  5
F
102
{ACAD_REACTORS
330
E
102
}
330
E
100
AcDbPlaceHolder
280
     0
  0
XRECORD
  5
1A9E
102
{ACAD_REACTORS
330
1A94
102
}
330
1A94
100
AcDbXrecord
 90
        0
  0
XRECORD
  5
1A9F
102
{ACAD_REACTORS
330
1A94
102
}
330
1A94
100
AcDbXrecord
  1
{DB6A8A02-C931-11D6-B76B-0002A5775E55}
  0
XRECORD
  5
1A97
102
{ACAD_REACTORS
330
1A94
102
}
330
1A94
100
AcDbXrecord
  1

  0
XRECORD
  5
1A9D
102
{ACAD_REACTORS
330
1A94
102
}
330
1A94
100
AcDbXrecord
 90
        1
  0
XRECORD
  5
1A99
102
{ACAD_REACTORS
330
1A94
102
}
330
1A94
100
AcDbXrecord
340
1A
  0
XRECORD
  5
1A9C
102
{ACAD_REACTORS
330
1A94
102
}
330
1A94
100
AcDbXrecord
 90
    10781
  0
XRECORD
  5
1A9A
102
{ACAD_REACTORS
330
1A94
102
}
330
1A94
100
AcDbXrecord
340
19
  0
XRECORD
  5
1A9B
102
{ACAD_REACTORS
330
1A94
102
}
330
1A94
100
AcDbXrecord
340
E
  0
XRECORD
  5
1AA1
102
{ACAD_REACTORS
330
1A94
102
}
330
1A94
100
AcDbXrecord
 40
0.0
  0
XRECORD
  5
1AA4
102
{ACAD_REACTORS
330
1A94
102
}
330
1A94
100
AcDbXrecord
340
0
  0
XRECORD
  5
1AAA
102
{ACAD_REACTORS
330
1A94
102
}
330
1A94
100
AcDbXrecord
 10
0.0
 20
0.0
 30
0.0
  0
XRECORD
  5
1AA6
102
{ACAD_REACTORS
330
1A94
102
}
330
1A94
100
AcDbXrecord
 10
0.0
 20
0.0
 30
0.0
  0
XRECORD
  5
1AA9
102
{ACAD_REACTORS
330
1A94
102
}
330
1A94
100
AcDbXrecord
 10
0.0
 20
0.0
 30
0.0
  0
XRECORD
  5
1AA7
102
{ACAD_REACTORS
330
1A94
102
}
330
1A94
100
AcDbXrecord
 10
0.0
 20
0.0
 30
0.0
  0
XRECORD
  5
1AA8
102
{ACAD_REACTORS
330
1A94
102
}
330
1A94
100
AcDbXrecord
 10
0.0
 20
0.0
 30
0.0
  0
XRECORD
  5
1AA5
102
{ACAD_REACTORS
330
1A94
102
}
330
1A94
100
AcDbXrecord
 10
0.0
 20
0.0
 30
0.0
  0
XRECORD
  5
1AA2
102
{ACAD_REACTORS
330
1A94
102
}
330
1A94
100
AcDbXrecord
340
0
  0
XRECORD
  5
1AA3
102
{ACAD_REACTORS
330
1A94
102
}
330
1A94
100
AcDbXrecord
 70
     0
  0
XRECORD
  5
1A98
102
{ACAD_REACTORS
330
1A94
102
}
330
1A94
100
AcDbXrecord
  1
wes.ctb
  0
XRECORD
  5
1A95
102
{ACAD_REACTORS
330
1A94
102
}
330
1A94
100
AcDbXrecord
 90
        1
  0
XRECORD
  5
1A96
102
{ACAD_REACTORS
330
1A94
102
}
330
1A94
100
AcDbXrecord
 90
       70
  0
XRECORD
  5
1AAD
102
{ACAD_REACTORS
330
1A94
102
}
330
1A94
100
AcDbXrecord
340
0
  0
XRECORD
  5
1AB3
102
{ACAD_REACTORS
330
1A94
102
}
330
1A94
100
AcDbXrecord
 10
0.0
 20
0.0
 30
0.0
  0
XRECORD
  5
1AAF
102
{ACAD_REACTORS
330
1A94
102
}
330
1A94
100
AcDbXrecord
 10
0.0
 20
0.0
 30
0.0
  0
XRECORD
  5
1AB2
102
{ACAD_REACTORS
330
1A94
102
}
330
1A94
100
AcDbXrecord
 10
0.0
 20
0.0
 30
0.0
  0
XRECORD
  5
1AB0
102
{ACAD_REACTORS
330
1A94
102
}
330
1A94
100
AcDbXrecord
 10
0.0
 20
0.0
 30
0.0
  0
XRECORD
  5
1AB1
102
{ACAD_REACTORS
330
1A94
102
}
330
1A94
100
AcDbXrecord
 10
0.0
 20
0.0
 30
0.0
  0
XRECORD
  5
1AAE
102
{ACAD_REACTORS
330
1A94
102
}
330
1A94
100
AcDbXrecord
 10
0.0
 20
0.0
 30
0.0
  0
XRECORD
  5
1AAB
102
{ACAD_REACTORS
330
1A94
102
}
330
1A94
100
AcDbXrecord
340
0
  0
XRECORD
  5
1AAC
102
{ACAD_REACTORS
330
1A94
102
}
330
1A94
100
AcDbXrecord
 70
     0
  0
XRECORD
  5
1AA0
102
{ACAD_REACTORS
330
1A94
102
}
330
1A94
100
AcDbXrecord
  1
{43157E2F-8530-49F7-8A0F-6DD7F87E69E6}
  0
DICTIONARYVAR
  5
1A2A
102
{ACAD_REACTORS
330
1696
102
}
330
1696
100
DictionaryVariables
280
     0
  1
1
  0
DICTIONARYVAR
  5
1A29
102
{ACAD_REACTORS
330
1696
102
}
330
1696
100
DictionaryVariables
280
     0
  1
3
  0
DICTIONARYVAR
  5
1697
102
{ACAD_REACTORS
330
1696
102
}
330
1696
100
DictionaryVariables
280
     0
  1
96
  0
XRECORD
  5
CD3
102
{ACAD_REACTORS
330
CD1
102
}
330
CD1
100
AcDbXrecord
  0
LAYER_INDEX
  5
1A5B
102
{ACAD_REACTORS
330
1A5A
102
}
330
1A5A
100
AcDbIndex
 40
2453420.347694583
100
AcDbLayerIndex
  8
0
360
1A5D
 90
      144
  8
HIDDEN
360
1A5E
 90
        4
  8
CENTRE
360
1A5F
 90
       10
  8
CONSTRUCT
360
1A60
 90
        0
  8
HATCH
360
1A61
 90
        7
  8
DEFPOINTS
360
1A62
 90
        0
  8
DIM
360
1A63
 90
       33
  0
SPATIAL_INDEX
  5
1A5C
102
{ACAD_REACTORS
330
1A5A
102
}
330
1A5A
100
AcDbIndex
 40
2453420.347694583
100
AcDbSpatialIndex
 40
16689420.56419231
 40
-776.3977572001981
 40
26407677.19003061
 40
2.647038374272916
 40
2165225144377.788
 40
-0.0017546990531974
 90
        0
 90
     1221
310
01FF0000FFFF0000FFFF0000FFFF000001080000FE8F0000FE8F0000FE8F01000005C731005F5F000001080000FE500000FE500000FE5007000011C831000D00010003000900020001005F5F01000005E332005F5F0000020109003FFE8F0000FE500000FE500F000022B32F00020002000B000300010001001300FA010003
310
00030001000100010001006A65000002010A0000FE50003FFE8F0000FE5006000010CB31000700010010008101000200005F000002010B003FFE8F003FFE8F0000FE5016000030B62F001200010001000900F30100030001000200010001000100010001000700070001000100310005004E000200000003000009F1320009
310
00010010000000020201090070FFFF0000FE8F0000FE8F000001080070FEC00000FE500000FE5006000010BE2F000100010001000300A30200005F0600000FEB3100010001000100010005005F20000002010900AFFFFF0000FE500000FE500600000FE93100010006000100010001000000000002010A0070FEC0003FFE8F
310
0000FE5016000030B82F000B000A000500020005009E0200010001000200080001000200010001000100010001000100010001004A0000000500000DF2320011000900530001000100000002010B00AFFFFF003FFE8F0000FE5006000010F5310001000400020003008E0100005F02000007E4330001000100000002011A00
310
70FFFF003FFE8F0000FE5001000005843300010000000201280070FEC00000FE8F0000FE5001000005BD2F000100000002012900AFFFFF0000FE8F0000FE5001000005E33300010000000202010A0000FE8F0070FFFF0000FE8F01000005AF2D000100000001080000FE500070FEC00000FE5006000010CB2C002B00010001
310
00C504000400005F0000020109003FFE8F0070FEC00000FE5013000029D52C001D00010002000500010001005000020001000100010001000200010001000100020002000001000002010A0000FE5000AFFFFF0000FE5007000011C92C000300010003000D00020010005F5F0300000AF92C00C6040003000001000002010B
310
003FFE8F00AFFFFF0000FE5012000028CE2C000E00140063000500040001000100010001000100010001000C0001000100B702004900000000000201180000FE8F0070FEC00000FE5002000007D42C0011000100000002011A0000FE8F00AFFFFF0000FE5001000005C0310011000000020129003FFE8F0070FFFF0000FE50
310
02000007D72C007400010000000202010B0070FFFF0070FFFF0000FE8F000001080070FEC00070FEC00000FE5001000005DA2D007400000002010900AFFFFF0070FEC00000FE50000002010A0070FEC000AFFFFF0000FE5007000011E42D002000020002004B003B0006005F5F0300000A952F009101004C00000100000201
310
0B00AFFFFF00AFFFFF0000FE5007000011832E000200020002000200020001005F5F0500000E8F2F0001000100AF01001900005F00000201180070FFFF0070FEC00000FE5001000005C43100020000000201280070FEC00070FFFF0000FE5001000005CD2D0002000000020201180000FFFF0000FE8F0000FE8F010000059E
310
340002000000011A0000FFFF003FFE8F0000FE5001000005923300020000000202011A0000FFFF0070FFFF0000FE8F000001180000FFFF0070FEC00000FE5001000005C331000200000002020200
  1
END ACDBSPATIALINDEX BINARY DATA
  0
IDBUFFER
  5
1A5D
330
0
100
AcDbIdBuffer
330
1649
330
164B
330
164C
330
164D
330
164E
330
1650
330
1654
330
1655
330
1657
330
165C
330
165D
330
166F
330
1670
330
1672
330
1673
330
1675
330
1676
330
1677
330
1678
330
1679
330
167A
330
167B
330
167C
330
16CC
330
16CD
330
16CE
330
16CF
330
16D0
330
16D1
330
16D3
330
16D4
330
16D5
330
16D6
330
16D7
330
16D8
330
16D9
330
16DA
330
16DB
330
16DC
330
16DD
330
16DE
330
16DF
330
16E0
330
16E1
330
16E3
330
16E4
330
1703
330
1705
330
1706
330
1707
330
1708
330
1709
330
170B
330
170D
330
170E
330
17B3
330
17B5
330
17B6
330
17B7
330
17B8
330
17BD
330
17BE
330
17BF
330
17C0
330
17C1
330
17C3
330
17C4
330
17C5
330
17C6
330
17C7
330
17C8
330
17C9
330
17CA
330
17CD
330
17D2
330
17D3
330
17D4
330
17D9
330
17DA
330
1826
330
18C8
330
18C9
330
18CA
330
18CB
330
18CC
330
18CD
330
18CF
330
18D0
330
18D1
330
18D2
330
18D3
330
18D4
330
18D5
330
18D6
330
18D7
330
18D8
330
18DA
330
18DB
330
18DC
330
18DD
330
18DE
330
18DF
330
18E0
330
18E1
330
18E2
330
18E3
330
18E4
330
18E5
330
18E7
330
18E9
330
18EA
330
18EB
330
18EC
330
18ED
330
18EE
330
18EF
330
18F0
330
18F1
330
18F2
330
18F3
330
18F5
330
18F6
330
18F7
330
18F8
330
18F9
330
18FA
330
18FB
330
18FC
330
18FF
330
1903
330
1904
330
1906
330
1907
330
1908
330
1909
330
190A
330
190B
330
190C
330
190E
330
1912
330
1917
330
19E3
330
19E4
330
19E5
  0
IDBUFFER
  5
1A5E
330
0
100
AcDbIdBuffer
330
16EF
330
16F0
330
16F1
330
1828
  0
IDBUFFER
  5
1A5F
330
0
100
AcDbIdBuffer
330
165F
330
1665
330
16D2
330
16E2
330
1704
330
17C2
330
18CE
330
18D9
330
18F4
330
190D
  0
IDBUFFER
  5
1A60
330
0
100
AcDbIdBuffer
  0
IDBUFFER
  5
1A61
330
0
100
AcDbIdBuffer
330
16AF
330
16CB
330
1840
330
18C6
330
18C7
330
1958
330
1A1E
  0
IDBUFFER
  5
1A62
330
0
100
AcDbIdBuffer
  0
IDBUFFER
  5
1A63
330
0
100
AcDbIdBuffer
330
1753
330
178E
330
178F
330
1790
330
1791
330
1794
330
1795
330
1859
330
1871
330
1872
330
18BD
330
18BF
330
18C0
330
18C1
330
18C2
330
18C3
330
18C4
330
1963
330
1964
330
1965
330
1966
330
1967
330
1971
330
1972
330
197A
330
197B
330
1983
330
1984
330
198C
330
198D
330
1992
330
19DF
330
19E0
  0
ENDSEC
  0
EOF
